<?xml version="1.0" standalone="no"?>
<!DOCTYPE svg PUBLIC "-//W3C//DTD SVG 1.1//EN" "http://www.w3.org/Graphics/SVG/1.1/DTD/svg11.dtd" >
<svg xmlns="http://www.w3.org/2000/svg" xmlns:xlink="http://www.w3.org/1999/xlink" version="1.1">
<metadata>
Created by FontForge 20141024 at Mon Oct 12 13:08:56 2015
 By Jimmy Warting
Copyright (c) 1992 Corel Corporation. All Rights Reserved.
</metadata>
<defs>
<font id="EuromodePlain" horiz-adv-x="2822" >
  <font-face 
    font-family="Euromode"
    font-weight="400"
    font-stretch="normal"
    units-per-em="4096"
    panose-1="2 11 114 0 0 0 0 0 0 0"
    ascent="3276"
    descent="-820"
    x-height="2150"
    cap-height="3072"
    bbox="-283 -958 5161 3969"
    underline-thickness="50"
    underline-position="-75"
    unicode-range="U+0020-F002"
  />
<missing-glyph horiz-adv-x="3072" 
d="M512 0v2560h2048v-2560h-2048zM2494 66v2428h-1916v-2428h1916z" />
    <glyph glyph-name=".notdef" horiz-adv-x="3072" 
d="M512 0v2560h2048v-2560h-2048zM2494 66v2428h-1916v-2428h1916z" />
    <glyph glyph-name=".null" horiz-adv-x="0" 
 />
    <glyph glyph-name="nonmarkingreturn" horiz-adv-x="0" 
 />
    <glyph glyph-name="brokenbar" unicode="&#xa6;" horiz-adv-x="721" 
d="M377 1434h311v-1434h-311v1434zM688 1720h-311v1352h311v-1352z" />
    <glyph glyph-name="twosuperior" unicode="&#xb2;" horiz-adv-x="1696" 
d="M295 1974q63 55 159.5 85t200 44t209.5 27q204 15 282 26.5t120 59.5q69 74 69 278q0 242 -69 299q-74 54 -377 54h-201q-202 -16 -242 -94q-12 -39 -20 -193v-111h-266v86q0 166 17 263.5t85 162.5q151 136 635 136q165 0 294.5 -20t234 -89t151.5 -203q25 -102 25 -217
q0 -202 -27 -335t-133 -218q-138 -104 -500 -135q-186 -13 -272 -26t-162 -72.5t-82 -188.5v-114h1176v-246h-1442v344q8 135 34.5 234.5t100.5 162.5z" />
    <glyph glyph-name="threesuperior" unicode="&#xb3;" horiz-adv-x="1696" 
d="M152 1831h266q0 -160 5 -206.5t32 -96.5q39 -70 258 -78h229q294 0 352 45q74 60 74 274v37q0 170 -96.5 222.5t-280.5 52.5h-262v225h229q250 0 308 45q61 56 61 225q0 168 -45 226q-43 47 -150.5 58t-316.5 11q-264 0 -319 -69q-47 -66 -58 -291h-262q0 181 17 271
t77 163q75 94 210.5 123t375.5 29q278 0 406 -20.5t208 -86.5q132 -106 132 -364q0 -230 -74 -328q-77 -103 -262 -115v-8q221 -12 311 -119q61 -104 61 -303q0 -334 -168 -442q-143 -94 -548 -94q-103 4 -240 11.5t-242 36.5t-180.5 101.5t-99.5 202.5q-4 22 -8 65t-9 62
q9 57 9 135z" />
    <glyph glyph-name="onesuperior" unicode="&#xb9;" horiz-adv-x="1696" 
d="M1098 1233h-267v1663l-512 -520l-135 168l545 553h369v-1864z" />
    <glyph glyph-name="onequarter" unicode="&#xbc;" horiz-adv-x="4239" 
d="M1143 1225h-271v1646l-512 -520l-135 168l545 553h373v-1847zM2998 3072h291l-2089 -3072h-270zM3752 369v-369h-270v369h-1106v295l991 1175h385v-1225h262v-245h-262zM2585 614h897v1049h-9z" />
    <glyph glyph-name="onehalf" unicode="&#xbd;" horiz-adv-x="4239" 
d="M2744 745q86 76 207.5 98t353.5 46q191 18 276 33.5t130 60.5q66 66 66 274v54q0 188 -74 241q-48 45 -134.5 55.5t-238.5 10.5q-131 0 -192 -8q-204 -14 -242 -99q-20 -49 -33 -192q8 -33 8 -111h-262v86q0 168 16 269t78 166q84 77 237 101.5t402 24.5q433 0 561 -118
q144 -130 144 -471q0 -357 -168 -492q-144 -112 -496 -127q-245 -19 -378.5 -67.5t-133.5 -219.5v-110l1168 -8v-242h-1430v336q0 289 135 409zM1106 1225h-266v1654l-512 -528l-135 168l544 553h369v-1847zM2929 3072h278l-2081 -3072h-278z" />
    <glyph glyph-name="threequarters" unicode="&#xbe;" horiz-adv-x="4239" 
d="M2626 614h892v1049h-8zM3793 369v-369h-275v369h-1093v295l983 1175h385v-1225h262v-245h-262zM3191 3072h291l-2089 -3072h-275zM184 1831h262q0 -160 5.5 -206.5t35.5 -96.5q40 -71 258 -78h230q166 0 239 8t105 37q82 55 82 274q0 116 -46.5 201.5t-146.5 102.5
q-65 8 -184 8h-262v225h229q242 0 303 45q66 55 66 225q-4 55 -6.5 92.5t-13 72t-37.5 61.5q-36 47 -141 58t-314 11q-262 0 -328 -69q-49 -69 -49 -291h-262q0 180 16 270t70 164q73 94 211.5 123t382.5 29q272 0 400 -20.5t214 -86.5q119 -109 119 -364q0 -236 -61 -328
q-78 -103 -267 -115v-8q229 -13 308 -119q61 -90 61 -303q0 -329 -160 -442q-143 -94 -553 -94q-83 3 -159.5 5.5t-171 13.5t-170 32.5t-130.5 58.5q-58 49 -82 102t-40 148t-21 119q8 57 8 135z" />
    <glyph glyph-name="Eth" unicode="&#xd0;" horiz-adv-x="3006" 
d="M1319 1442h-688v-1139h1163q413 0 565 258q127 194 127 696v222v442q0 197 -53.5 381t-177 311.5t-318.5 147.5q-82 8 -274 8h-1032v-1049h688v-278zM279 1720l8 1352h1331q224 0 408 -25t349 -108.5t271 -243.5q184 -277 184 -807v-647q0 -365 -87 -649t-326 -449
q-213 -143 -553 -143h-1585v1442h-414v278h414z" />
    <glyph glyph-name="Yacute" unicode="&#xdd;" horiz-adv-x="2593" 
d="M1098 0v1282l-1123 1790h402l909 -1442l914 1442h417l-1167 -1790v-1282h-352zM983 3506l610 463l160 -217l-655 -414z" />
    <glyph glyph-name="Thorn" unicode="&#xde;" horiz-adv-x="2703" 
d="M586 905h917q213 0 334.5 13.5t194.5 64.5q90 76 124.5 200.5t34.5 327.5q0 382 -86 512q-58 91 -179.5 117.5t-389.5 26.5h-950v-1262zM586 2474h1229q441 -11 618 -332q102 -209 102 -590q0 -242 -39 -428.5t-153 -316.5q-144 -163 -422 -209q-123 0 -184 -4h-185h-966
v-594h-344v3072h344v-598z" />
    <glyph glyph-name="eth" unicode="&#xf0;" horiz-adv-x="2335" 
d="M1167 1913q-207 0 -335.5 -21.5t-192.5 -105.5q-85 -126 -102 -529q8 -49 8 -139q0 -119 -8 -188q16 -456 110 -578q106 -119 504 -119q168 0 258 9q199 31 270 127q99 123 99 561v344q0 423 -123 532q-64 61 -173 84t-315 23zM942 2585l-278 -250l-177 176l218 192
q-146 76 -426 152l73 242q327 -88 570 -201l221 201l184 -177l-168 -151q318 -197 573.5 -476t331.5 -589q58 -224 58 -639q0 -340 -37 -549.5t-148 -331.5q-105 -128 -300.5 -168.5t-477.5 -40.5q-182 0 -304.5 10t-248.5 54.5t-221 136.5q-116 133 -160 488
q-16 159 -16 495q0 190 24 393q26 144 54.5 235.5t89.5 174.5q107 126 307 169.5t459 43.5q70 0 179 -4t157 -4q-72 81 -159 157.5t-185 145t-193 115.5z" />
    <glyph glyph-name="yacute" unicode="&#xfd;" horiz-adv-x="1794" 
d="M872 0h-110q-132 362 -206 567t-143 398t-207 576.5t-222 608.5h327l664 -1917h8l487 1917h336l-319 -1167q-154 -666 -369 -1376q-76 -251 -235.5 -404t-403.5 -153q-18 0 -50.5 2.5t-65.5 5.5t-52 4v250q55 -12 103 -12q157 0 240.5 101t129 268.5t88.5 330.5z
M582 2584l610 463l160 -217l-655 -414z" />
    <glyph glyph-name="thorn" unicode="&#xfe;" horiz-adv-x="2343" 
d="M594 250v-1188h-332v4010h332v-1184l4 -8q96 184 290 239.5t423 55.5q416 0 594 -184q148 -138 186.5 -338t38.5 -563v-107q0 -349 -88 -611t-346 -347q-205 -50 -410 -50q-232 0 -418.5 54t-269.5 221h-4zM1217 233q345 0 462 152q115 142 115 606l4 127
q-3 244 -17 374.5t-61 219.5q-64 106 -176 153.5t-327 47.5q-396 0 -512 -160q-66 -82 -88.5 -211t-30.5 -334q8 -57 8 -151q0 -250 12 -352q29 -185 99 -279q129 -193 512 -193z" />
    <glyph glyph-name="space" unicode=" " horiz-adv-x="1417" 
 />
    <glyph glyph-name="exclam" unicode="!" horiz-adv-x="1106" 
d="M377 418h368v-418h-368v418zM377 3072h368l-16 -1090l-8 -487v-303l-8 -344h-303l-17 1577l-8 512z" />
    <glyph glyph-name="quotedbl" unicode="&#x22;" horiz-adv-x="1454" 
d="M479 2064h-160l-110 553v455h385v-455zM1135 2064h-168l-111 553v455h385v-455z" />
    <glyph glyph-name="numbersign" unicode="#" 
d="M1737 1905h-504l-115 -664h504zM1118 3072h316l-148 -840h508l143 840h328l-143 -840h372v-327h-438l-110 -664h413v-328h-479l-160 -913h-311l152 913h-504q-26 -167 -160 -913h-311l151 913h-409v328h471l114 664h-434v327h488z" />
    <glyph glyph-name="dollar" unicode="$" 
d="M1282 3072v287h262v-287q331 0 521.5 -23.5t319.5 -100t193 -236t64 -431.5v-73h-352v90q0 322 -123 405q-78 52 -216 67t-407 15v-1081q337 -4 530 -27t338.5 -106.5t222.5 -261.5t77 -486q-13 -525 -312 -696q-248 -127 -737 -127h-119v-352h-262v352q-180 0 -300.5 4
t-235.5 19.5t-221.5 52.5t-188.5 100q-120 103 -168.5 290t-48.5 484h352q0 -86 -8 -135q7 -181 23 -262.5t67 -134.5q83 -90 239 -109.5t490 -29.5v1138q-227 0 -376 8.5t-280 41.5t-233 102q-250 168 -250 655q0 478 234 672q97 79 230.5 117.5t286.5 48.5t388 10z
M1282 2785q-225 0 -340 -8q-129 0 -229 -41q-112 -50 -164.5 -157.5t-52.5 -321.5q0 -242 71 -361.5t215 -158.5q98 -25 316 -41q69 8 184 8v1081zM1544 1417v-1138q66 4 195.5 8t189.5 8q133 15 193 41q120 46 178.5 159t58.5 345q0 192 -35 306.5t-116.5 172t-224.5 74.5
t-439 24z" />
    <glyph glyph-name="percent" unicode="%" horiz-adv-x="3625" 
d="M2703 3072h287l-2085 -3097h-274zM737 2871q-41 -3 -120.5 -5.5t-136.5 -13.5t-87 -34q-57 -49 -57 -258v-528q6 -130 33.5 -179.5t85.5 -66.5q57 -25 299 -25q171 0 245.5 13.5t110.5 56.5q66 66 66 274v480q-17 192 -70 233q-67 53 -291 53h-78zM737 3097
q344 0 471 -66q209 -102 209 -487v-287v-152q0 -191 -40 -312t-160 -191q-76 -43 -188 -54.5t-284 -11.5q-319 0 -442 57q-104 45 -157.5 154.5t-59.5 333.5v454q0 409 209 496q85 45 181.5 55.5t260.5 10.5zM2847 1311q-2 0 -101 -4.5t-155.5 -17.5t-87.5 -40
q-34 -26 -43.5 -76.5t-18.5 -173.5v-503q6 -143 35.5 -200t91.5 -79q58 -16 295 -16q184 0 251.5 9t109.5 52q65 76 65 283v446q-9 125 -19.5 179.5t-54.5 86.5q-31 24 -87.5 34t-166 15t-114.5 5zM2847 1536q326 0 475 -66q205 -110 205 -495v-430q0 -192 -40 -316
t-157 -188q-79 -43 -191 -54.5t-284 -11.5q-320 0 -438 50q-104 48 -157.5 159t-59.5 336v455q0 408 208 495q135 66 439 66z" />
    <glyph glyph-name="ampersand" unicode="&#x26;" horiz-adv-x="3224" 
d="M2425 2130h-352q0 94 -9 143q0 287 -49 381q-37 78 -149 108.5t-338 30.5q-288 0 -410 -65q-168 -88 -168 -352q0 -140 37 -224.5t164 -189.5l1216 -1024q0 39 4.5 112.5t4.5 125.5q0 49 -4.5 102t-4.5 74h320q0 -37 4 -125t4 -137q0 -242 -33 -410l553 -438l-184 -242
l-455 377q-111 -262 -434 -344q-91 -27 -202.5 -40t-217.5 -15.5t-268 -2.5h-197q-411 0 -618 91q-375 168 -381 884q0 449 143 611q64 74 159 109t329 99q-112 79 -173 162t-85.5 184.5t-24.5 251.5q0 482 283 611q203 119 647 119q564 0 745 -226q144 -196 144 -544v-197z
M1106 1577q-303 -71 -393 -152q-65 -59 -86 -164t-21 -319q0 -230 22 -348.5t71.5 -174t148.5 -91.5q104 -39 446 -58q99 9 242 9q344 0 479 40q241 73 291 267z" />
    <glyph glyph-name="quotesingle" unicode="'" horiz-adv-x="823" 
d="M250 3072h364v-520q0 -162 -47.5 -241t-129.5 -99.5t-228 -20.5v185q120 6 160.5 56.5t40.5 221.5h-160v418z" />
    <glyph glyph-name="parenleft" unicode="(" horiz-adv-x="1282" 
d="M1024 -614q-237 0 -394 43.5t-261 193.5q-144 208 -144 639v1888q0 423 105 630t270.5 262t423.5 55v-304q-209 0 -279 -49q-176 -121 -176 -512v-1974q0 -225 72 -397t264 -172h119v-303z" />
    <glyph glyph-name="parenright" unicode=")" horiz-adv-x="1282" 
d="M250 3097h78q389 0 577 -242q144 -197 144 -713v-1814q0 -791 -451 -914q-85 -28 -205 -28h-143v303q61 0 94 8q155 0 234.5 100.5t103 243t23.5 319.5v1897q-9 225 -74.5 380.5t-270.5 155.5h-110v304z" />
    <glyph glyph-name="asterisk" unicode="*" 
d="M1303 3072h225v-664l622 234l82 -225l-630 -234l372 -536l-176 -136l-381 553l-409 -553l-193 127l402 545l-623 234l78 225l631 -234v664z" />
    <glyph glyph-name="plus" unicode="+" horiz-adv-x="2392" 
d="M201 1311h839v839h312v-839h831v-303h-831v-840h-312v840h-839v303z" />
    <glyph glyph-name="comma" unicode="," horiz-adv-x="1417" 
d="M496 418h360v-475q0 -235 -65 -312q-68 -94 -295 -94h-50v94v90q125 13 163 76.5t38 202.5h-151v418z" />
    <glyph glyph-name="hyphen" unicode="-" horiz-adv-x="1073" 
d="M1065 1274v-307h-1065v307h1065z" />
    <glyph glyph-name="period" unicode="." horiz-adv-x="1417" 
d="M815 418v-418h-369v418h369z" />
    <glyph glyph-name="slash" unicode="/" horiz-adv-x="2978" 
d="M2478 3072h385l-2376 -3535h-376z" />
    <glyph glyph-name="zero" unicode="0" 
d="M1409 2793q-330 0 -467.5 -13t-228.5 -60q-119 -55 -189.5 -195.5t-77.5 -476.5v-1032q0 -546 259 -664q99 -47 239.5 -60t439.5 -13q371 0 556.5 23t275.5 116q151 151 151 639v950q0 296 -44.5 453.5t-155.5 226.5q-112 74 -252.5 90t-505.5 16zM1401 -25
q-197 0 -361 10t-292 35.5t-224 68.5t-172 112q-125 125 -180.5 332t-69.5 548v901q9 294 57.5 506t168.5 351q86 97 232.5 154t351 80.5t497.5 23.5q375 0 617 -39.5t382 -145.5q161 -117 230.5 -331t81.5 -599v-892q0 -754 -353 -963q-112 -67 -262 -100t-315.5 -42.5
t-388.5 -9.5z" />
    <glyph glyph-name="one" unicode="1" 
d="M1831 3072v-3072h-344v2810l-791 -864l-217 204l848 922h504z" />
    <glyph glyph-name="two" unicode="2" 
d="M487 1200q79 73 183 118.5t222 70t245 37.5t231 24q110 10 225 20t210 27.5t159 46.5q112 49 155.5 167.5t49.5 377.5q0 481 -135 598q-112 106 -590 106q-509 0 -651 -81q-99 -48 -125.5 -168t-26.5 -369v-160h-344v242q0 306 65 470t226 243q265 127 864 127
q678 0 893 -258q168 -199 168 -734q-7 -301 -48.5 -466t-164.5 -271q-70 -64 -168 -105t-209.5 -64t-200.5 -32t-278 -24q-291 -30 -453.5 -67t-243.5 -126q-106 -101 -106 -344v-303h1864v-303h-2208v631q9 137 27 236t56.5 182.5t108.5 150.5z" />
    <glyph glyph-name="three" unicode="3" 
d="M233 991h353q0 -168 -8 -237q2 -40 7 -113.5t17 -124t42.5 -96t84.5 -76.5q102 -46 216.5 -55.5t389.5 -9.5q152 0 217 -9q359 14 471 82q86 56 119 176t33 328q0 250 -54.5 368.5t-191.5 159.5q-71 24 -344 41l-459 -8v312h426q205 0 328 24q124 36 179 150t55 362
q0 177 -24 276t-99 154q-68 59 -222.5 78.5t-457.5 19.5q-51 -2 -152 -5t-161.5 -8.5t-116 -19t-99.5 -40.5q-94 -49 -126.5 -173.5t-32.5 -416.5h-353q0 350 55.5 535.5t186.5 279.5q121 94 317 123t523 29q412 0 625.5 -44t320.5 -165q168 -199 168 -582q0 -329 -82 -483
q-111 -214 -430 -246v-8q220 -12 344 -89.5t172.5 -218t48.5 -364.5q0 -178 -14 -312t-68 -259.5t-164 -206.5q-107 -84 -311 -114t-594 -30q-202 0 -334.5 6t-263.5 32t-225 81q-108 59 -168.5 140t-87.5 177t-37.5 212t-18.5 225v143z" />
    <glyph glyph-name="four" unicode="4" 
d="M410 1008h1437v1839h-8zM1663 3072h537v-2064h446v-312h-446v-696h-353v696h-1728v414z" />
    <glyph glyph-name="five" unicode="5" 
d="M680 1847h8q72 113 203.5 168.5t254 68.5t341.5 21q297 0 523 -65.5t349 -200.5q185 -214 185 -696v-94q-7 -243 -16.5 -376.5t-50 -267.5t-126.5 -229q-117 -128 -336.5 -164.5t-572.5 -36.5h-99q-270 0 -460.5 24t-321.5 103q-158 101 -216.5 300t-65.5 479h352
q0 -74 -8 -111q7 -149 35 -235.5t112 -157.5q79 -64 229.5 -81t409.5 -17q45 0 70 -9q233 11 366.5 34t210.5 97q91 81 117.5 235.5t26.5 395.5v74q0 182 -20 313t-83 211q-78 96 -215 126.5t-387 37.5h-229q-152 0 -266.5 -16t-206 -78t-113.5 -189h-352v1561h2097v-303
h-1745v-922z" />
    <glyph glyph-name="six" unicode="6" 
d="M2478 2298h-344q0 153 -19 247t-92 150q-62 52 -163.5 71.5t-219.5 22t-288 4.5q-282 -10 -406.5 -26t-208.5 -96q-108 -103 -123 -414v-639h17q70 179 280.5 228.5t505.5 49.5q365 0 592 -39.5t342 -160.5q128 -127 164.5 -339t36.5 -501q-7 -272 -68 -457.5
t-219 -287.5q-140 -91 -333 -113.5t-539 -22.5h-127q-488 0 -713 160q-283 195 -283 770v1360q0 453 234 639q147 124 366 158.5t572 34.5h119q514 0 712 -168q125 -97 165 -256t40 -375zM623 975q0 -218 26 -363t125 -219q91 -69 212.5 -90.5t332.5 -32.5q41 9 90 9
q137 2 265 5.5t234.5 26t180.5 82.5q111 83 111 406v225q0 342 -95 446q-71 78 -221 100.5t-430 22.5h-78q-232 0 -397.5 -25t-249.5 -106q-100 -95 -115 -397q9 -33 9 -90z" />
    <glyph glyph-name="seven" unicode="7" 
d="M258 2785v287h2236v-438l-1486 -2634h-414l1614 2785h-1950z" />
    <glyph glyph-name="eight" unicode="8" 
d="M1401 1434q-273 0 -412 -18.5t-227 -72.5q-83 -56 -119.5 -178t-36.5 -334q0 -219 31 -319.5t125 -151.5q132 -81 782 -81q241 6 330.5 21.5t173.5 68.5q92 50 126 163.5t34 315.5q0 194 -19 296.5t-84 166.5q-134 123 -704 123zM2032 1602v-9q245 -34 358.5 -145.5
t138 -244.5t31.5 -363q0 -362 -94.5 -546t-318.5 -251.5t-652 -67.5h-152q-301 0 -477.5 19.5t-315 99.5t-213.5 254t-75 475q0 188 12.5 305t61.5 211t160.5 159.5t302.5 94.5v9q-316 44 -414 221q-82 154 -82 475q0 418 160 598q139 156 475 184q188 17 479 17
q352 0 504 -17q153 -24 260 -62.5t186 -129.5q92 -102 122 -248.5t30 -333.5q0 -182 -15 -301t-79 -211q-123 -163 -393 -192zM1409 2793q-408 0 -569 -49q-76 -24 -115.5 -75.5t-54.5 -139.5t-15 -231q0 -139 11 -231t40.5 -150t84.5 -94q140 -86 593 -86q251 0 403.5 17.5
t235.5 60.5q87 48 119.5 161t32.5 322q0 193 -28.5 283.5t-114.5 138.5q-78 44 -201.5 54.5t-421.5 18.5z" />
    <glyph glyph-name="nine" unicode="9" 
d="M2568 770q-12 -358 -136.5 -526.5t-375 -218.5t-745.5 -50q-268 0 -442 17t-308 82q-108 48 -174 130.5t-97.5 220.5t-31.5 357h340v-118q11 -69 20.5 -132t39 -110.5t96.5 -77.5q55 -29 143.5 -42t187.5 -16t242 -7q135 0 201 -9q305 16 409 41q149 38 214 161.5
t65 399.5v598q-62 -124 -187.5 -186t-275 -77t-369.5 -15q-230 0 -404 18.5t-300 65.5t-209 133q-184 196 -184 725q6 310 58 495.5t167 282.5q119 107 326.5 146t562.5 39q329 0 528.5 -25t338.5 -107t213.5 -252.5t86.5 -455.5v-1487zM1434 2793q-313 0 -460.5 -18.5
t-219.5 -87.5q-76 -74 -95.5 -195.5t-19.5 -341.5q0 -207 20 -331.5t86 -196.5q72 -70 222.5 -98.5t433.5 -28.5q362 8 505 25.5t224 101.5q86 120 86 418v94q0 388 -111 520q-70 82 -217.5 110.5t-453.5 28.5z" />
    <glyph glyph-name="colon" unicode=":" horiz-adv-x="1417" 
d="M815 418v-418h-369v418h369zM815 2150v-413h-369v413h369z" />
    <glyph glyph-name="semicolon" unicode=";" horiz-adv-x="1417" 
d="M496 2150h360v-421h-360v421zM496 418h360v-492q0 -262 -102 -336q-87 -53 -308 -53v184q201 0 201 230v49h-151v418z" />
    <glyph glyph-name="less" unicode="&#x3c;" horiz-adv-x="2392" 
d="M201 1135l1982 847v-327l-1614 -664l1614 -663v-328l-1982 848v287z" />
    <glyph glyph-name="equal" unicode="=" horiz-adv-x="2392" 
d="M201 1630h1982v-303h-1982v303zM201 999h1982v-311h-1982v311z" />
    <glyph glyph-name="greater" unicode="&#x3e;" horiz-adv-x="2392" 
d="M2183 1135v-287l-1982 -848v328l1605 663l-1605 664v327z" />
    <glyph glyph-name="question" unicode="?" horiz-adv-x="2392" 
d="M1225 872h-353v160q0 200 70 303q64 113 175 172.5t304 127.5t283 126q75 52 101 160.5t26 343.5q0 218 -34.5 324t-149 155t-357.5 49h-90q-248 -8 -352 -21t-168 -69q-64 -45 -92.5 -156.5t-34.5 -330.5q8 -33 8 -111h-328v111q0 571 238 745q119 86 295.5 111
t458.5 25q278 0 440 -35.5t281 -124.5q213 -171 213 -672q0 -241 -27 -387.5t-85.5 -232t-158.5 -150.5q-98 -69 -294 -141.5t-226 -87.5q-84 -32 -109.5 -93t-41.5 -182q8 -41 8 -119zM864 418h369v-418h-369v418z" />
    <glyph glyph-name="at" unicode="@" horiz-adv-x="4055" 
d="M2306 2040q-84 41 -201 41q-168 0 -301 -114.5t-208 -285.5t-85 -338q7 -170 100 -281.5t236 -139.5q157 0 291 117.5t213 328.5q82 226 82 385q0 226 -127 287zM2290 950q-201 -256 -512 -270q-259 19 -410.5 203.5t-159.5 451.5q12 234 131.5 468t318.5 383t439 149
q150 0 285 -90t170 -230h16l74 234h287l-353 -1123q-5 -12 -12.5 -38.5t-11.5 -38.5q10 -119 192 -119q226 0 381.5 183.5t216.5 524.5q17 81 17 181q0 306 -187 535.5t-479 350t-596 125.5q-354 0 -670.5 -193.5t-509 -514.5t-196.5 -680q0 -329 173.5 -605t475 -438
t662.5 -166q24 9 49 9q258 10 622 118l107 -233q-394 -140 -746 -152q-317 0 -615 97t-534.5 284.5t-373 454t-140.5 598.5q9 16 9 33q6 346 155 653t394 531t539.5 347.5t582.5 123.5q254 -3 527.5 -79t512 -228.5t384 -388t145.5 -541.5q0 -38 -9 -148q-35 -287 -164 -521
t-325.5 -369t-423.5 -142q-418 0 -438 262v8z" />
    <glyph glyph-name="A" unicode="A" horiz-adv-x="2810" 
d="M721 938h1360l-688 1847zM1143 3072h487l1155 -3072h-360l-250 647h-1552l-238 -647h-360z" />
    <glyph glyph-name="B" unicode="B" horiz-adv-x="2839" 
d="M594 1425v-1122h1175q166 0 268 44.5t148 118.5t59 162t13 220q0 577 -442 577h-1221zM1630 2769h-1036v-1040h1053q297 0 409 118q73 78 92 197t19 291q0 224 -86 319q-63 70 -162.5 92.5t-288.5 22.5zM1864 3072q356 0 502 -189t153 -548q0 -241 -47 -385.5
t-129.5 -219.5t-208.5 -120v0q222 -46 325.5 -167.5t126.5 -272.5t23 -396q-5 -225 -74.5 -398t-226.5 -274.5t-403 -101.5h-1655v3072h1614z" />
    <glyph glyph-name="C" unicode="C" horiz-adv-x="2720" 
d="M2241 2114v118q0 345 -127 455q-78 67 -189 86.5t-287 19.5h-69q-87 -2 -239.5 -6.5t-277 -21.5t-224 -54t-164.5 -102q-136 -159 -136 -450v-1008q0 -323 45 -493.5t132 -247.5q64 -65 135 -91.5t156 -34t180 -14.5q81 9 208 9q312 0 439 8q250 27 352 123
q92 85 106 278q9 111 9 352h344v-176q0 -230 -33.5 -392t-151.5 -279q-129 -139 -321.5 -178.5t-464.5 -39.5h-221h-344q-212 0 -357 46t-311 188q-106 95 -176 290.5t-70 422.5v1208q0 443 185 663q164 195 423.5 249.5t632.5 54.5h111q279 0 401 -9q265 -25 414 -151
q150 -122 196 -309t46 -437v-77h-352z" />
    <glyph glyph-name="D" unicode="D" horiz-adv-x="3006" 
d="M1729 303q216 0 356.5 49t224.5 168q98 133 127 331t29 452v679q0 197 -58 374.5t-202.5 295t-382.5 117.5h-1217v-2466h1123zM1847 0h-1589v3072h1503q352 0 565.5 -116.5t335.5 -329.5q148 -277 148 -754v-655q0 -840 -467 -1098q-187 -119 -496 -119z" />
    <glyph glyph-name="E" unicode="E" horiz-adv-x="2298" 
d="M168 0v3072h1974v-303h-1630v-1049h1561v-286h-1561v-1131h1630v-303h-1974z" />
    <glyph glyph-name="F" unicode="F" horiz-adv-x="2249" 
d="M262 0v3072h1888v-303h-1544v-1081h1508v-287h-1508v-1401h-344z" />
    <glyph glyph-name="G" unicode="G" horiz-adv-x="2847" 
d="M2712 856q0 -513 -238 -704q-109 -84 -245.5 -122t-294 -46.5t-447.5 -8.5h-246q-183 0 -326.5 15.5t-269.5 63t-219 139.5q-126 123 -188 324.5t-62 522.5v1008q0 549 242 815q108 114 277 174t378 60h832q378 0 588 -176.5t210 -512.5v-233h-344v131q0 271 -86 356
q-65 72 -176.5 98t-257.5 28.5t-303 4.5q-230 -1 -382 -3t-266.5 -26.5t-199.5 -92.5q-84 -66 -122 -208.5t-38 -406.5v-1114q0 -398 185 -532q102 -77 235.5 -103.5t333.5 -36.5q70 9 188 9q123 0 177 -9q230 9 370 33.5t224 89.5q126 94 126 447v385h-983v311h1328v-680z
" />
    <glyph glyph-name="H" unicode="H" horiz-adv-x="3072" 
d="M287 3072h352v-1352h1802v1352h344v-3072h-344v1417h-1802v-1417h-352v3072z" />
    <glyph glyph-name="I" unicode="I" horiz-adv-x="938" 
d="M295 3072h344v-3072h-344v3072z" />
    <glyph glyph-name="J" unicode="J" horiz-adv-x="2310" 
d="M1671 3072h344v-2327q0 -419 -217 -585q-216 -185 -823 -185q-292 8 -463.5 69t-269.5 189q-123 143 -123 447v438h344v-237q7 -253 24 -354t82 -158q104 -86 414 -99q64 14 200.5 18.5t221.5 23t156 81.5q72 66 91 147t19 230v2302z" />
    <glyph glyph-name="K" unicode="K" horiz-adv-x="2777" 
d="M295 3072h344v-1343h303l1258 1343h454l-1405 -1487l1573 -1585h-471l-1409 1425h-303v-1425h-344v3072z" />
    <glyph glyph-name="L" unicode="L" horiz-adv-x="2290" 
d="M303 3072h352v-2769h1561v-303h-1913v3072z" />
    <glyph glyph-name="M" unicode="M" horiz-adv-x="3953" 
d="M279 0v3072h610l1085 -2634l1090 2634h602v-3072h-344v2810h-8l-1164 -2810h-344l-1167 2810h-8v-2810h-352z" />
    <glyph glyph-name="N" unicode="N" horiz-adv-x="3207" 
d="M270 3072h578l1720 -2810h8v2810h353v-3072h-570l-1728 2785h-8v-2785h-353v3072z" />
    <glyph glyph-name="O" unicode="O" horiz-adv-x="2753" 
d="M1360 2793h-127q-169 0 -286.5 -13.5t-209 -59t-143.5 -135.5q-59 -115 -69.5 -280t-12.5 -216v-1122q0 -320 102 -504q66 -112 199 -144t363 -40h200q330 0 492.5 26t245.5 133q118 159 118 504v1180q0 381 -135 524q-93 106 -299 131q-77 9 -233.5 11t-204.5 5z
M1368 3097q250 0 432 -14.5t352.5 -77t264.5 -195.5q40 -38 99.5 -219t59.5 -592v-1057q0 -254 -40.5 -399.5t-118.5 -272.5q-80 -127 -227.5 -193t-306.5 -84t-347 -18h-352q-266 0 -469 47.5t-346 194.5q-201 221 -201 733v1090q0 168 8.5 291.5t42 245.5t100.5 225
q91 131 239 196t309 82t390 17h111z" />
    <glyph glyph-name="P" unicode="P" horiz-adv-x="2703" 
d="M586 1192v-1192h-344v3072h1556q452 0 610 -287q127 -217 127 -655q0 -491 -184 -705q-179 -233 -598 -233h-1167zM586 1503h983q211 0 323 24.5t172 90.5q77 88 102 196t25 283q0 358 -69 496q-100 176 -443 176h-1093v-1266z" />
    <glyph glyph-name="Q" unicode="Q" horiz-adv-x="3015" 
d="M1393 1098l159 237l889 -581q25 69 25 262v1126q0 290 -107 451q-61 81 -153 124t-200.5 57t-253 15.5t-282.5 3.5q-348 0 -530.5 -34t-284.5 -174q-102 -147 -102 -480v-1024q0 -522 160 -671q85 -76 217 -99.5t352 -31.5h213q152 0 234 -9q85 4 175.5 9t175 22.5
t157.5 58.5t114 111zM2863 135l-229 152q-120 -137 -276 -205t-340.5 -87.5t-456.5 -19.5h-201q-310 0 -531.5 43t-365.5 175q-161 158 -212 415.5t-58 685.5q8 82 8 242q0 258 -8 377q7 323 51 529.5t182 367.5q141 168 400 227.5t608 59.5h143q405 0 638.5 -50.5
t377.5 -207.5q225 -241 225 -807v-848q0 -457 -74 -639l262 -168z" />
    <glyph glyph-name="R" unicode="R" horiz-adv-x="2871" 
d="M1761 2769h-1130v-1233h1089q168 0 280.5 30t190.5 113q115 124 115 443v102q0 301 -82 402q-126 143 -463 143zM1753 3072q512 0 721 -225q180 -191 180 -688q0 -405 -119 -574q-130 -171 -413 -209v-8q145 -16 258.5 -90t175 -192t61.5 -263v-823h-352v672
q0 301 -115 426q-107 127 -421 127h-1106v-1225h-344v3072h1474z" />
    <glyph glyph-name="S" unicode="S" horiz-adv-x="2576" 
d="M1286 3097q323 0 545 -38.5t336 -129.5q217 -183 217 -611v-86h-344q-10 183 -23.5 275.5t-70.5 154.5q-47 59 -136 87t-208 36t-316 8h-86q-453 0 -602 -122q-59 -48 -80.5 -144.5t-21.5 -253.5q0 -372 176 -467q84 -47 203 -63.5t251.5 -18.5t274.5 -4q403 -29 546 -49
t261 -102q151 -103 190.5 -277.5t50.5 -419.5q0 -264 -65.5 -460t-200.5 -293q-151 -95 -381.5 -119.5t-576.5 -24.5h-127q-241 0 -429 35.5t-317 141.5q-121 93 -169.5 247.5t-55.5 374.5q8 66 8 184h352q0 -36 -8 -69q8 -206 31 -327.5t96 -184.5q86 -76 266 -90
q111 -8 336 -8q152 0 234 -9q386 17 512 107q86 58 114.5 174t28.5 297v49q0 287 -106 389q-63 66 -180.5 86t-356.5 37q-149 5 -293 10t-301 21.5t-284.5 53t-215.5 99.5q-115 89 -161.5 234.5t-55.5 363.5q0 532 226 721q141 118 358 151.5t559 33.5z" />
    <glyph glyph-name="T" unicode="T" horiz-adv-x="2367" 
d="M1008 0v2769h-992v303h2335v-303h-991v-2769h-352z" />
    <glyph glyph-name="U" unicode="U" horiz-adv-x="3015" 
d="M1511 279q58 0 91 -9q272 10 420.5 34.5t226.5 105.5q84 72 105.5 201t21.5 339v2122h352v-2200q0 -491 -250 -704q-170 -128 -416 -160.5t-620 -32.5q-292 0 -480.5 22.5t-355.5 113.5q-109 59 -178.5 171.5t-101 255t-31.5 293.5v2241h344v-2232q0 -360 143 -455
q95 -63 242.5 -83t400.5 -32q29 9 86 9z" />
    <glyph glyph-name="V" unicode="V" horiz-adv-x="2634" 
d="M1569 0h-496l-1098 3072h369l967 -2810h16l963 2810h364z" />
    <glyph glyph-name="W" unicode="W" horiz-adv-x="4600" 
d="M950 0l-942 3072h352l840 -2810h8l824 2810h512l823 -2810h8l856 2810h361l-967 -3072h-528l-799 2761l-8 8l-820 -2769h-520z" />
    <glyph glyph-name="X" unicode="X" horiz-adv-x="2671" 
d="M66 3072h413l873 -1319l864 1319h410l-988 -1487l1057 -1585h-405l-938 1409l-951 -1409h-426l1098 1585z" />
    <glyph glyph-name="Y" unicode="Y" horiz-adv-x="2593" 
d="M1098 0v1282l-1123 1790h402l909 -1442l914 1442h417l-1167 -1790v-1282h-352z" />
    <glyph glyph-name="Z" unicode="Z" horiz-adv-x="2609" 
d="M160 3072h2306v-319q-324 -411 -567.5 -718.5t-759.5 -960t-611 -771.5h1975v-303h-2401v303l1930 2466h-1872v303z" />
    <glyph glyph-name="bracketleft" unicode="[" horiz-adv-x="1274" 
d="M225 3097h791v-304h-447v-3104h447v-303h-791v3711z" />
    <glyph glyph-name="backslash" unicode="\" horiz-adv-x="1135" 
d="M913 0q-111 339 -307 937.5t-392.5 1197t-307.5 937.5h319l1016 -3072h-328z" />
    <glyph glyph-name="bracketright" unicode="]" horiz-adv-x="1274" 
d="M250 3097h799v-3711h-799v303h446v3104h-446v304z" />
    <glyph glyph-name="asciicircum" unicode="^" horiz-adv-x="2392" 
d="M1049 3072h286l848 -2007h-328l-663 1606l-664 -1606h-327z" />
    <glyph glyph-name="underscore" unicode="_" horiz-adv-x="2048" 
d="M0 -311h2048v-303h-2048v303z" />
    <glyph glyph-name="grave" unicode="`" horiz-adv-x="1384" 
d="M967 2408l-664 414l168 217l602 -463z" />
    <glyph glyph-name="a" unicode="a" horiz-adv-x="2335" 
d="M1737 217l-8 8q-81 -153 -242.5 -201.5t-421.5 -48.5q-321 0 -506.5 56.5t-273 195.5t-92.5 396q8 24 8 57q7 266 106 399t280 174t494 41h54q162 0 327 -28q229 -61 250 -185h25v381q0 166 -41 250q-44 108 -166.5 154.5t-370.5 46.5h-69q-221 0 -354.5 -64t-141.5 -247
q4 -17 4 -58h-336q0 368 201 520q113 72 290.5 91.5t397.5 19.5q273 0 452.5 -37.5t284.5 -138.5q168 -168 168 -549v-1450h-319v217zM606 938q-34 -50 -41.5 -91t-14.5 -124.5t-22 -124.5q23 -153 66 -229q33 -60 96 -87.5t144 -35t256 -13.5q231 0 369 34.5t204 125.5
q66 100 66 279q0 238 -175.5 303t-472.5 65q-203 0 -311 -16.5t-164 -85.5z" />
    <glyph glyph-name="b" unicode="b" horiz-adv-x="2351" 
d="M598 1872h8q77 184 247 239t421 64q248 -6 409.5 -54.5t262.5 -158.5q86 -101 129 -246t55 -301.5t12 -374.5q-7 -228 -19 -366t-61 -282t-149 -240q-176 -177 -656 -177q-231 0 -404 73t-247 210l-8 -8v-250h-328v3072h328v-1200zM1225 1913q-180 0 -311.5 -29
t-208.5 -139q-92 -142 -107 -545q20 -95 24 -281t22 -300t93 -226q102 -160 455 -160q190 13 295 35t192 109q83 83 105 267t22 437q-9 278 -24 420t-78 244q-105 168 -479 168z" />
    <glyph glyph-name="c" unicode="c" horiz-adv-x="2241" 
d="M1704 1450v45q0 97 -25 193t-77 143q-110 82 -435 82h-77q-172 0 -265 -22.5t-178 -104.5q-63 -66 -86.5 -186.5t-32.5 -325.5q9 -57 9 -168q0 -164 -9 -250q10 -193 35.5 -310.5t100.5 -193.5q119 -110 503 -110q212 0 317.5 17.5t170.5 76.5q90 81 90 369v69h319v-94
q0 -363 -176 -528q-205 -185 -753 -185q-196 5 -318.5 20t-226.5 57.5t-189 123.5q-131 131 -162 305.5t-38 575.5q0 269 14.5 432.5t51.5 267t110 188.5q94 111 224.5 163t261 63.5t321.5 11.5q212 0 383 -39.5t256 -103.5q132 -100 170.5 -248.5t38.5 -333.5h-328z" />
    <glyph glyph-name="d" unicode="d" horiz-adv-x="2351" 
d="M1745 1880v1192h319v-3072h-319v270h-8q-82 -158 -252 -226.5t-428 -68.5q-447 0 -631 185q-101 101 -150.5 243.5t-62 290t-12.5 346.5q0 70 -8 111q7 279 52 485.5t165 329.5q191 209 630 209q245 0 436 -58t261 -237h8zM1126 1913q-199 -11 -305.5 -33.5
t-181.5 -126.5q-67 -98 -84.5 -254t-17.5 -401q0 -49 -9 -82q11 -253 34.5 -401t101.5 -238q41 -50 99 -78.5t123.5 -41t164 -18t108.5 -6.5q358 0 463 160q81 115 102 269t21 403q0 483 -107 655q-121 193 -512 193z" />
    <glyph glyph-name="e" unicode="e" horiz-adv-x="2310" 
d="M1761 1266q-9 230 -25 346t-81 194q-84 107 -447 107h-65q-195 -8 -305 -30t-183 -97q-95 -126 -110 -520h1216zM2097 1376v-168v-209h-1552v-127v-32q7 -254 34.5 -363.5t141.5 -181.5q48 -27 117.5 -39.5t157 -15.5t212.5 -7q205 0 316.5 17.5t171.5 77.5
q46 46 59.5 116t13.5 203h328q0 -377 -168 -520q-82 -67 -191 -100t-234 -42.5t-312 -9.5q-263 0 -481.5 51.5t-317.5 166.5q-117 150 -150.5 376.5t-33.5 528.5q7 334 52.5 549t156.5 319q121 121 310 165t448 44q506 0 696 -160q117 -99 171 -270.5t54 -368.5z" />
    <glyph glyph-name="f" unicode="f" horiz-adv-x="1241" 
d="M1249 3088v-266q-73 8 -200 8q-187 0 -267 -45q-102 -72 -102 -299v-336h577v-262h-577v-1888h-320v1888h-327v262h327v316q0 353 152 487q166 144 487 144q177 0 250 -9z" />
    <glyph glyph-name="g" unicode="g" horiz-adv-x="2343" 
d="M545 1176q0 -168 -8 -263q15 -388 102 -512q60 -82 131.5 -107t191 -34.5t173.5 -26.5q348 17 483 152q85 90 110 240t25 366v82q0 414 -49 557q-60 164 -200.5 223.5t-377.5 59.5q-166 0 -277.5 -27t-184.5 -108q-77 -86 -98 -210.5t-21 -391.5zM1753 1880v270h328
v-2383q0 -374 -217 -541q-218 -184 -738 -184q-214 0 -385 29.5t-295 129.5q-170 148 -184 480q8 24 8 61h324q7 -262 119 -348q62 -54 171.5 -72t266.5 -18q350 0 467 98q143 103 143 405l-8 455q-71 -175 -255 -231t-433 -56q-199 0 -380 53.5t-275 164.5q-79 97 -122 232
t-58 277t-21 338q0 19 -2 55t-2 52q0 278 56 499.5t157 319.5q209 209 663 209q296 -6 437 -73.5t235 -229.5v8z" />
    <glyph glyph-name="h" unicode="h" horiz-adv-x="2376" 
d="M598 1294v-1294h-319v3072h319v-1184h8q77 175 257.5 231t418.5 56q231 -7 381.5 -41t249.5 -127q176 -166 176 -565v-1442h-320v1454q0 274 -122 369q-117 90 -422 90q-350 0 -496 -135q-131 -144 -131 -484z" />
    <glyph glyph-name="i" unicode="i" horiz-adv-x="881" 
d="M270 3072h328v-360h-328v360zM270 2150h328v-2150h-328v2150z" />
    <glyph glyph-name="j" unicode="j" horiz-adv-x="856" 
d="M270 3072h328v-360h-328v360zM-25 -840v246h58q237 0 237 299v70v2375h328v-2408q0 -395 -168 -516q-101 -82 -287 -82q-68 0 -168 16z" />
    <glyph glyph-name="k" unicode="k" horiz-adv-x="1991" 
d="M270 3072h328v-1778h131l774 856h402l-922 -991l1090 -1159h-426l-918 1032h-131v-1032h-328v3072z" />
    <glyph glyph-name="l" unicode="l" horiz-adv-x="881" 
d="M270 3072h328v-3072h-328v3072z" />
    <glyph glyph-name="m" unicode="m" horiz-adv-x="3768" 
d="M594 1815h4q150 342 696 360q272 0 458.5 -90t229.5 -270q174 343 754 360q233 0 384 -54.5t232.5 -153t113.5 -234t32 -308.5v-1425h-332v1384q0 214 -39.5 325.5t-138 157.5t-285.5 46q-198 0 -339.5 -36t-232.5 -159t-91 -366v-1352h-320v1425q0 201 -36.5 302
t-139.5 143.5t-311 42.5q-296 0 -467.5 -137t-171.5 -494v-1282h-332v2150h332v-335z" />
    <glyph glyph-name="n" unicode="n" horiz-adv-x="2376" 
d="M598 1888h8q51 113 150.5 175t218.5 84t266 28q321 0 505 -71.5t263.5 -226t79.5 -415.5v-1462h-320v1454q0 188 -52 286.5t-162 135.5t-306 37q-190 0 -305.5 -24.5t-206.5 -110.5q-139 -127 -139 -496v-1282h-319v2150h319v-262z" />
    <glyph glyph-name="o" unicode="o" horiz-adv-x="2335" 
d="M1159 1913h-102q-297 0 -402 -119q-67 -75 -88.5 -219.5t-29.5 -398.5q8 -33 8 -95q0 -73 -8 -114q8 -231 25.5 -367t68.5 -215q64 -100 202.5 -126t342.5 -26q180 0 306.5 20.5t188.5 98.5q115 130 115 570v159q0 267 -18.5 444t-88.5 261q-66 83 -198.5 105t-321.5 22z
M1106 2175q314 0 508 -33t307 -151q133 -135 167 -360.5t34 -581.5q0 -334 -38 -557t-188 -357q-121 -105 -314.5 -132.5t-463.5 -27.5q-282 0 -472.5 50t-293.5 208q-143 208 -143 766q0 351 25.5 574t125.5 356q111 147 291.5 192.5t454.5 53.5z" />
    <glyph glyph-name="p" unicode="p" horiz-adv-x="2343" 
d="M594 250v-1188h-332v3088h332v-262l4 -16q68 145 239.5 224t411.5 79q221 0 398 -47.5t266 -145.5q102 -117 150.5 -280t59.5 -322t11 -381q0 -599 -213 -831q-171 -193 -655 -193q-234 0 -412 56t-256 219h-4zM1200 233q362 0 479 152q75 94 95 245.5t24 409.5
q0 269 -21 459.5t-98 269.5q-125 144 -462 144q-404 0 -521 -160q-59 -86 -81 -214.5t-29 -330.5q8 -49 8 -151q0 -471 102 -619q139 -205 504 -205z" />
    <glyph glyph-name="q" unicode="q" horiz-adv-x="2351" 
d="M1753 242h-8q-77 -163 -242 -215t-393 -52q-254 0 -413 40.5t-271 152.5q-135 141 -176 383.5t-41 558.5q0 309 40.5 514t180.5 350q99 104 278.5 152.5t401.5 48.5q474 0 643 -295v16l8 254h320v-3088h-328v1180zM1159 233q385 0 504 205q82 143 82 492v295
q0 383 -107 528q-116 160 -528 160q-334 0 -446 -144q-64 -88 -91.5 -294.5t-27.5 -425.5q10 -307 24.5 -439t85.5 -225q126 -152 504 -152z" />
    <glyph glyph-name="r" unicode="r" horiz-adv-x="1806" 
d="M537 1880h8q91 174 241.5 230.5t356.5 64.5q381 0 512 -213q98 -160 98 -483v-70h-303q0 303 -49 385q-75 119 -336 119q-246 -7 -375 -122t-129 -464v-1327h-328v2150h320z" />
    <glyph glyph-name="s" unicode="s" horiz-adv-x="2200" 
d="M1982 1593h-335q0 195 -62 238q-86 57 -385 57h-135q-174 0 -276.5 -10.5t-174.5 -54.5q-77 -47 -77 -254q6 -186 64 -241.5t206 -70.5q50 0 186 -8t207 -8q251 0 411.5 -34.5t253.5 -110t132.5 -193.5t42.5 -297q0 -289 -125 -427t-311.5 -171t-485.5 -33
q-254 0 -450 28.5t-340 140t-144 335.5v201h336v-82q10 -140 20 -189t66 -81q63 -31 169.5 -45.5t200 -18t257.5 -6.5q158 0 257.5 25t154.5 98.5t59 212.5q0 204 -74 278q-46 47 -132 56.5t-314 13.5q-348 19 -456.5 29t-238.5 65.5t-205 185t-75 355.5q3 219 75 344
t189.5 177t234 62t357.5 15q261 0 431 -19t290 -92q196 -127 196 -471z" />
    <glyph glyph-name="t" unicode="t" horiz-adv-x="1495" 
d="M258 647v1241h-283v262h283v521h328v-521h831v-262h-831v-1319q0 -154 29.5 -222t81 -85t175.5 -29q248 0 295 144q25 72 25 221v164h303v-107q0 -342 -111 -487q-138 -193 -520 -193q-351 0 -479 127q-77 79 -102 212.5t-25 332.5z" />
    <glyph glyph-name="u" unicode="u" horiz-adv-x="2335" 
d="M1720 287l-8 -8q-85 -181 -265 -242.5t-431 -61.5q-387 0 -570 177q-184 184 -184 553v1445h332v-1413q0 -182 21 -264.5t73 -136.5q98 -103 402 -103q127 6 211.5 16.5t168 44t140.5 99.5q110 121 110 447v1310h328v-2150h-328v287z" />
    <glyph glyph-name="v" unicode="v" horiz-adv-x="1855" 
d="M1872 2150l-721 -2150h-455l-712 2150h327l611 -1908h8l590 1908h352z" />
    <glyph glyph-name="w" unicode="w" horiz-adv-x="3088" 
d="M2474 -8l-475 8l-455 1921h-8l-463 -1921h-479l-578 2150h328l487 -1925h9l471 1925h467l463 -1925h16l487 1925h336z" />
    <glyph glyph-name="x" unicode="x" horiz-adv-x="1855" 
d="M66 2150h360l504 -790l487 790h377l-688 -1032l766 -1118h-385l-557 864l-561 -864h-385l778 1118z" />
    <glyph glyph-name="y" unicode="y" horiz-adv-x="1794" 
d="M872 0h-110q-132 362 -206 567t-143 398t-207 576.5t-222 608.5h327l664 -1917h8l487 1917h336l-319 -1167q-154 -666 -369 -1376q-76 -251 -235.5 -404t-403.5 -153q-18 0 -50.5 2.5t-65.5 5.5t-52 4v250q55 -12 103 -12q157 0 240.5 101t129 268.5t88.5 330.5z" />
    <glyph glyph-name="z" unicode="z" horiz-adv-x="1855" 
d="M209 2150h1552v-303l-1282 -1589l1282 4v-262h-1667v295l1290 1593h-1175v262z" />
    <glyph glyph-name="braceleft" unicode="{" horiz-adv-x="1368" 
d="M1192 3097v-304h-168q-96 0 -128 -61.5t-32 -171.5v-696q0 -401 -295 -623q295 -234 295 -635v-688q0 -229 160 -229h168v-303h-352q-83 0 -159 72t-122.5 183t-46.5 216v696q0 277 -76 398t-243 139v311q198 23 258.5 160.5t60.5 367.5v688q0 103 43 215t123.5 188.5
t185.5 76.5h328z" />
    <glyph glyph-name="bar" unicode="|" horiz-adv-x="1065" 
d="M688 3072v-3072h-311v3072h311z" />
    <glyph glyph-name="braceright" unicode="}" horiz-adv-x="1368" 
d="M176 -614v303q74 0 111 8h106q111 0 111 246v327q0 160 -8 234q5 186 27 305.5t88 227.5t196 204q-183 119 -243.5 295t-67.5 438q8 99 8 275v254q0 247 -94 282q-7 0 -27 4t-39 4h-168v304h336q77 0 147.5 -64t119.5 -158t61 -163q8 -66 8 -218v-286q0 -119 -8 -193
q8 -102 18 -212t36 -191t91.5 -140.5t181.5 -78.5v-303q-189 -22 -254 -158.5t-65 -353.5v-361v-303q0 -135 -25 -201q-53 -162 -152 -244.5t-175 -82.5h-320z" />
    <glyph glyph-name="asciitilde" unicode="~" horiz-adv-x="2392" 
d="M201 881q18 311 140 488t339 183q185 0 344 -118l426 -258q98 -58 143 -76.5t111 -18.5q192 0 192 279v74h287q0 -163 -59.5 -317.5t-170.5 -250.5t-257 -96q-192 0 -377 127l-406 254q-32 33 -99.5 69.5t-108.5 36.5q-118 0 -168 -118.5t-50 -257.5h-286z" />
    <glyph glyph-name="Adieresis" unicode="&#xc4;" horiz-adv-x="2810" 
d="M721 938h1360l-688 1847zM1143 3072h487l1155 -3072h-360l-250 647h-1552l-238 -647h-360zM1638 3601h361v-304h-361v304zM815 3601h361v-304h-361v304z" />
    <glyph glyph-name="Aring" unicode="&#xc5;" horiz-adv-x="2810" 
d="M721 938h1360l-688 1847zM1143 3072h487l1155 -3072h-360l-250 647h-1552l-238 -647h-360zM1400 3937q144 0 249.5 -103.5t111.5 -249.5q0 -148 -101.5 -252t-250.5 -104q-152 0 -256.5 102t-104.5 254q0 144 106.5 248.5t245.5 104.5zM1392 3777q-82 0 -133 -61
t-51 -148q0 -76 58 -132t134 -56q84 0 142.5 56t58.5 148q0 81 -61 137t-148 56z" />
    <glyph glyph-name="Ccedilla" unicode="&#xc7;" horiz-adv-x="2720" 
d="M2241 2114v118q0 345 -127 455q-78 67 -189 86.5t-287 19.5h-69q-87 -2 -239.5 -6.5t-277 -21.5t-224 -54t-164.5 -102q-136 -159 -136 -450v-1008q0 -323 45 -493.5t132 -247.5q64 -65 135 -91.5t156 -34t180 -14.5q81 9 208 9q312 0 439 8q250 27 352 123
q92 85 106 278q9 111 9 352h344v-176q0 -230 -33.5 -392t-151.5 -279q-129 -139 -321.5 -178.5t-464.5 -39.5h-221h-344q-212 0 -357 46t-311 188q-106 95 -176 290.5t-70 422.5v1208q0 443 185 663q164 195 423.5 249.5t632.5 54.5h111q279 0 401 -9q265 -25 414 -151
q150 -122 196 -309t46 -437v-77h-352zM1073 -631l270 463l226 -119l-324 -442z" />
    <glyph glyph-name="Eacute" unicode="&#xc9;" horiz-adv-x="2298" 
d="M168 0v3072h1974v-303h-1630v-1049h1561v-286h-1561v-1131h1630v-303h-1974zM758 3506l610 463l160 -217l-655 -414z" />
    <glyph glyph-name="Ntilde" unicode="&#xd1;" horiz-adv-x="3207" 
d="M270 3072h578l1720 -2810h8v2810h353v-3072h-570l-1728 2785h-8v-2785h-353v3072zM1872 3330q-71 0 -134.5 22t-155 65.5t-156.5 66t-132 22.5q-78 0 -113.5 -37.5t-95.5 -130.5l-184 103q171 307 393 307q87 0 190 -44l206 -88t190 -44q79 0 128.5 45.5t109.5 134.5
l176 -119q-69 -118 -182 -210.5t-240 -92.5z" />
    <glyph glyph-name="Odieresis" unicode="&#xd6;" horiz-adv-x="2753" 
d="M1360 2793h-127q-169 0 -286.5 -13.5t-209 -59t-143.5 -135.5q-59 -115 -69.5 -280t-12.5 -216v-1122q0 -320 102 -504q66 -112 199 -144t363 -40h200q330 0 492.5 26t245.5 133q118 159 118 504v1180q0 381 -135 524q-93 106 -299 131q-77 9 -233.5 11t-204.5 5z
M1368 3097q250 0 432 -14.5t352.5 -77t264.5 -195.5q40 -38 99.5 -219t59.5 -592v-1057q0 -254 -40.5 -399.5t-118.5 -272.5q-80 -127 -227.5 -193t-306.5 -84t-347 -18h-352q-266 0 -469 47.5t-346 194.5q-201 221 -201 733v1090q0 168 8.5 291.5t42 245.5t100.5 225
q91 131 239 196t309 82t390 17h111zM1605 3601h361v-304h-361v304zM782 3601h361v-304h-361v304z" />
    <glyph glyph-name="Udieresis" unicode="&#xdc;" horiz-adv-x="3015" 
d="M1511 279q58 0 91 -9q272 10 420.5 34.5t226.5 105.5q84 72 105.5 201t21.5 339v2122h352v-2200q0 -491 -250 -704q-170 -128 -416 -160.5t-620 -32.5q-292 0 -480.5 22.5t-355.5 113.5q-109 59 -178.5 171.5t-101 255t-31.5 293.5v2241h344v-2232q0 -360 143 -455
q95 -63 242.5 -83t400.5 -32q29 9 86 9zM1740 3601h361v-304h-361v304zM917 3601h361v-304h-361v304z" />
    <glyph glyph-name="aacute" unicode="&#xe1;" horiz-adv-x="2335" 
d="M1737 217l-8 8q-81 -153 -242.5 -201.5t-421.5 -48.5q-321 0 -506.5 56.5t-273 195.5t-92.5 396q8 24 8 57q7 266 106 399t280 174t494 41h54q162 0 327 -28q229 -61 250 -185h25v381q0 166 -41 250q-44 108 -166.5 154.5t-370.5 46.5h-69q-221 0 -354.5 -64t-141.5 -247
q4 -17 4 -58h-336q0 368 201 520q113 72 290.5 91.5t397.5 19.5q273 0 452.5 -37.5t284.5 -138.5q168 -168 168 -549v-1450h-319v217zM606 938q-34 -50 -41.5 -91t-14.5 -124.5t-22 -124.5q23 -153 66 -229q33 -60 96 -87.5t144 -35t256 -13.5q231 0 369 34.5t204 125.5
q66 100 66 279q0 238 -175.5 303t-472.5 65q-203 0 -311 -16.5t-164 -85.5zM782 2584l610 463l160 -217l-655 -414z" />
    <glyph glyph-name="agrave" unicode="&#xe0;" horiz-adv-x="2335" 
d="M1737 217l-8 8q-81 -153 -242.5 -201.5t-421.5 -48.5q-321 0 -506.5 56.5t-273 195.5t-92.5 396q8 24 8 57q7 266 106 399t280 174t494 41h54q162 0 327 -28q229 -61 250 -185h25v381q0 166 -41 250q-44 108 -166.5 154.5t-370.5 46.5h-69q-221 0 -354.5 -64t-141.5 -247
q4 -17 4 -58h-336q0 368 201 520q113 72 290.5 91.5t397.5 19.5q273 0 452.5 -37.5t284.5 -138.5q168 -168 168 -549v-1450h-319v217zM606 938q-34 -50 -41.5 -91t-14.5 -124.5t-22 -124.5q23 -153 66 -229q33 -60 96 -87.5t144 -35t256 -13.5q231 0 369 34.5t204 125.5
q66 100 66 279q0 238 -175.5 303t-472.5 65q-203 0 -311 -16.5t-164 -85.5zM1360 2408l-664 414l168 217l602 -463z" />
    <glyph glyph-name="acircumflex" unicode="&#xe2;" horiz-adv-x="2335" 
d="M1737 217l-8 8q-81 -153 -242.5 -201.5t-421.5 -48.5q-321 0 -506.5 56.5t-273 195.5t-92.5 396q8 24 8 57q7 266 106 399t280 174t494 41h54q162 0 327 -28q229 -61 250 -185h25v381q0 166 -41 250q-44 108 -166.5 154.5t-370.5 46.5h-69q-221 0 -354.5 -64t-141.5 -247
q4 -17 4 -58h-336q0 368 201 520q113 72 290.5 91.5t397.5 19.5q273 0 452.5 -37.5t284.5 -138.5q168 -168 168 -549v-1450h-319v217zM606 938q-34 -50 -41.5 -91t-14.5 -124.5t-22 -124.5q23 -153 66 -229q33 -60 96 -87.5t144 -35t256 -13.5q231 0 369 34.5t204 125.5
q66 100 66 279q0 238 -175.5 303t-472.5 65q-203 0 -311 -16.5t-164 -85.5zM1889 2576l-99 -168l-614 312l-631 -312l-90 168l721 447z" />
    <glyph glyph-name="adieresis" unicode="&#xe4;" horiz-adv-x="2335" 
d="M1737 217l-8 8q-81 -153 -242.5 -201.5t-421.5 -48.5q-321 0 -506.5 56.5t-273 195.5t-92.5 396q8 24 8 57q7 266 106 399t280 174t494 41h54q162 0 327 -28q229 -61 250 -185h25v381q0 166 -41 250q-44 108 -166.5 154.5t-370.5 46.5h-69q-221 0 -354.5 -64t-141.5 -247
q4 -17 4 -58h-336q0 368 201 520q113 72 290.5 91.5t397.5 19.5q273 0 452.5 -37.5t284.5 -138.5q168 -168 168 -549v-1450h-319v217zM606 938q-34 -50 -41.5 -91t-14.5 -124.5t-22 -124.5q23 -153 66 -229q33 -60 96 -87.5t144 -35t256 -13.5q231 0 369 34.5t204 125.5
q66 100 66 279q0 238 -175.5 303t-472.5 65q-203 0 -311 -16.5t-164 -85.5zM1396 2671h361v-304h-361v304zM573 2671h361v-304h-361v304z" />
    <glyph glyph-name="atilde" unicode="&#xe3;" horiz-adv-x="2335" 
d="M1737 217l-8 8q-81 -153 -242.5 -201.5t-421.5 -48.5q-321 0 -506.5 56.5t-273 195.5t-92.5 396q8 24 8 57q7 266 106 399t280 174t494 41h54q162 0 327 -28q229 -61 250 -185h25v381q0 166 -41 250q-44 108 -166.5 154.5t-370.5 46.5h-69q-221 0 -354.5 -64t-141.5 -247
q4 -17 4 -58h-336q0 368 201 520q113 72 290.5 91.5t397.5 19.5q273 0 452.5 -37.5t284.5 -138.5q168 -168 168 -549v-1450h-319v217zM606 938q-34 -50 -41.5 -91t-14.5 -124.5t-22 -124.5q23 -153 66 -229q33 -60 96 -87.5t144 -35t256 -13.5q231 0 369 34.5t204 125.5
q66 100 66 279q0 238 -175.5 303t-472.5 65q-203 0 -311 -16.5t-164 -85.5zM1442 2400q-71 0 -134.5 22t-155 65.5t-156.5 66t-132 22.5q-78 0 -113.5 -37.5t-95.5 -130.5l-184 103q171 307 393 307q87 0 190 -44l206 -88t190 -44q79 0 128.5 45.5t109.5 134.5l176 -119
q-69 -118 -182 -210.5t-240 -92.5z" />
    <glyph glyph-name="aring" unicode="&#xe5;" horiz-adv-x="2335" 
d="M1737 217l-8 8q-81 -153 -242.5 -201.5t-421.5 -48.5q-321 0 -506.5 56.5t-273 195.5t-92.5 396q8 24 8 57q7 266 106 399t280 174t494 41h54q162 0 327 -28q229 -61 250 -185h25v381q0 166 -41 250q-44 108 -166.5 154.5t-370.5 46.5h-69q-221 0 -354.5 -64t-141.5 -247
q4 -17 4 -58h-336q0 368 201 520q113 72 290.5 91.5t397.5 19.5q273 0 452.5 -37.5t284.5 -138.5q168 -168 168 -549v-1450h-319v217zM606 938q-34 -50 -41.5 -91t-14.5 -124.5t-22 -124.5q23 -153 66 -229q33 -60 96 -87.5t144 -35t256 -13.5q231 0 369 34.5t204 125.5
q66 100 66 279q0 238 -175.5 303t-472.5 65q-203 0 -311 -16.5t-164 -85.5zM1167 3015q144 0 249.5 -103.5t111.5 -249.5q0 -148 -101.5 -252t-250.5 -104q-152 0 -256.5 102t-104.5 254q0 144 106.5 248.5t245.5 104.5zM1159 2855q-82 0 -133 -61t-51 -148q0 -76 58 -132
t134 -56q84 0 142.5 56t58.5 148q0 81 -61 137t-148 56z" />
    <glyph glyph-name="ccedilla" unicode="&#xe7;" horiz-adv-x="2241" 
d="M1704 1450v45q0 97 -25 193t-77 143q-110 82 -435 82h-77q-172 0 -265 -22.5t-178 -104.5q-63 -66 -86.5 -186.5t-32.5 -325.5q9 -57 9 -168q0 -164 -9 -250q10 -193 35.5 -310.5t100.5 -193.5q119 -110 503 -110q212 0 317.5 17.5t170.5 76.5q90 81 90 369v69h319v-94
q0 -363 -176 -528q-205 -185 -753 -185q-196 5 -318.5 20t-226.5 57.5t-189 123.5q-131 131 -162 305.5t-38 575.5q0 269 14.5 432.5t51.5 267t110 188.5q94 111 224.5 163t261 63.5t321.5 11.5q212 0 383 -39.5t256 -103.5q132 -100 170.5 -248.5t38.5 -333.5h-328z
M827 -631l270 463l226 -119l-324 -442z" />
    <glyph glyph-name="eacute" unicode="&#xe9;" horiz-adv-x="2310" 
d="M1761 1266q-9 230 -25 346t-81 194q-84 107 -447 107h-65q-195 -8 -305 -30t-183 -97q-95 -126 -110 -520h1216zM2097 1376v-168v-209h-1552v-127v-32q7 -254 34.5 -363.5t141.5 -181.5q48 -27 117.5 -39.5t157 -15.5t212.5 -7q205 0 316.5 17.5t171.5 77.5
q46 46 59.5 116t13.5 203h328q0 -377 -168 -520q-82 -67 -191 -100t-234 -42.5t-312 -9.5q-263 0 -481.5 51.5t-317.5 166.5q-117 150 -150.5 376.5t-33.5 528.5q7 334 52.5 549t156.5 319q121 121 310 165t448 44q506 0 696 -160q117 -99 171 -270.5t54 -368.5zM774 2584
l610 463l160 -217l-655 -414z" />
    <glyph glyph-name="egrave" unicode="&#xe8;" horiz-adv-x="2310" 
d="M1761 1266q-9 230 -25 346t-81 194q-84 107 -447 107h-65q-195 -8 -305 -30t-183 -97q-95 -126 -110 -520h1216zM2097 1376v-168v-209h-1552v-127v-32q7 -254 34.5 -363.5t141.5 -181.5q48 -27 117.5 -39.5t157 -15.5t212.5 -7q205 0 316.5 17.5t171.5 77.5
q46 46 59.5 116t13.5 203h328q0 -377 -168 -520q-82 -67 -191 -100t-234 -42.5t-312 -9.5q-263 0 -481.5 51.5t-317.5 166.5q-117 150 -150.5 376.5t-33.5 528.5q7 334 52.5 549t156.5 319q121 121 310 165t448 44q506 0 696 -160q117 -99 171 -270.5t54 -368.5zM1352 2408
l-664 414l168 217l602 -463z" />
    <glyph glyph-name="ecircumflex" unicode="&#xea;" horiz-adv-x="2310" 
d="M1761 1266q-9 230 -25 346t-81 194q-84 107 -447 107h-65q-195 -8 -305 -30t-183 -97q-95 -126 -110 -520h1216zM2097 1376v-168v-209h-1552v-127v-32q7 -254 34.5 -363.5t141.5 -181.5q48 -27 117.5 -39.5t157 -15.5t212.5 -7q205 0 316.5 17.5t171.5 77.5
q46 46 59.5 116t13.5 203h328q0 -377 -168 -520q-82 -67 -191 -100t-234 -42.5t-312 -9.5q-263 0 -481.5 51.5t-317.5 166.5q-117 150 -150.5 376.5t-33.5 528.5q7 334 52.5 549t156.5 319q121 121 310 165t448 44q506 0 696 -160q117 -99 171 -270.5t54 -368.5zM1872 2576
l-99 -168l-614 312l-631 -312l-90 168l721 447z" />
    <glyph glyph-name="edieresis" unicode="&#xeb;" horiz-adv-x="2310" 
d="M1761 1266q-9 230 -25 346t-81 194q-84 107 -447 107h-65q-195 -8 -305 -30t-183 -97q-95 -126 -110 -520h1216zM2097 1376v-168v-209h-1552v-127v-32q7 -254 34.5 -363.5t141.5 -181.5q48 -27 117.5 -39.5t157 -15.5t212.5 -7q205 0 316.5 17.5t171.5 77.5
q46 46 59.5 116t13.5 203h328q0 -377 -168 -520q-82 -67 -191 -100t-234 -42.5t-312 -9.5q-263 0 -481.5 51.5t-317.5 166.5q-117 150 -150.5 376.5t-33.5 528.5q7 334 52.5 549t156.5 319q121 121 310 165t448 44q506 0 696 -160q117 -99 171 -270.5t54 -368.5zM1388 2671
h361v-304h-361v304zM565 2671h361v-304h-361v304z" />
    <glyph glyph-name="iacute" unicode="&#xed;" horiz-adv-x="881" 
d="M270 2150h328v-2150h-328v2150zM53 2584l610 463l160 -217l-655 -414z" />
    <glyph glyph-name="igrave" unicode="&#xec;" horiz-adv-x="881" 
d="M270 2150h328v-2150h-328v2150zM717 2408l-664 414l168 217l602 -463z" />
    <glyph glyph-name="icircumflex" unicode="&#xee;" horiz-adv-x="881" 
d="M270 2150h328v-2150h-328v2150zM1151 2576l-99 -168l-614 312l-631 -312l-90 168l721 447z" />
    <glyph glyph-name="idieresis" unicode="&#xef;" horiz-adv-x="881" 
d="M270 2150h328v-2150h-328v2150zM671 2671h361v-304h-361v304zM-152 2671h361v-304h-361v304z" />
    <glyph glyph-name="ntilde" unicode="&#xf1;" horiz-adv-x="2376" 
d="M598 1888h8q51 113 150.5 175t218.5 84t266 28q321 0 505 -71.5t263.5 -226t79.5 -415.5v-1462h-320v1454q0 188 -52 286.5t-162 135.5t-306 37q-190 0 -305.5 -24.5t-206.5 -110.5q-139 -127 -139 -496v-1282h-319v2150h319v-262zM1467 2400q-71 0 -134.5 22t-155 65.5
t-156.5 66t-132 22.5q-78 0 -113.5 -37.5t-95.5 -130.5l-184 103q171 307 393 307q87 0 190 -44l206 -88t190 -44q79 0 128.5 45.5t109.5 134.5l176 -119q-69 -118 -182 -210.5t-240 -92.5z" />
    <glyph glyph-name="oacute" unicode="&#xf3;" horiz-adv-x="2335" 
d="M1159 1913h-102q-297 0 -402 -119q-67 -75 -88.5 -219.5t-29.5 -398.5q8 -33 8 -95q0 -73 -8 -114q8 -231 25.5 -367t68.5 -215q64 -100 202.5 -126t342.5 -26q180 0 306.5 20.5t188.5 98.5q115 130 115 570v159q0 267 -18.5 444t-88.5 261q-66 83 -198.5 105t-321.5 22z
M1106 2175q314 0 508 -33t307 -151q133 -135 167 -360.5t34 -581.5q0 -334 -38 -557t-188 -357q-121 -105 -314.5 -132.5t-463.5 -27.5q-282 0 -472.5 50t-293.5 208q-143 208 -143 766q0 351 25.5 574t125.5 356q111 147 291.5 192.5t454.5 53.5zM782 2584l610 463
l160 -217l-655 -414z" />
    <glyph glyph-name="ograve" unicode="&#xf2;" horiz-adv-x="2335" 
d="M1159 1913h-102q-297 0 -402 -119q-67 -75 -88.5 -219.5t-29.5 -398.5q8 -33 8 -95q0 -73 -8 -114q8 -231 25.5 -367t68.5 -215q64 -100 202.5 -126t342.5 -26q180 0 306.5 20.5t188.5 98.5q115 130 115 570v159q0 267 -18.5 444t-88.5 261q-66 83 -198.5 105t-321.5 22z
M1106 2175q314 0 508 -33t307 -151q133 -135 167 -360.5t34 -581.5q0 -334 -38 -557t-188 -357q-121 -105 -314.5 -132.5t-463.5 -27.5q-282 0 -472.5 50t-293.5 208q-143 208 -143 766q0 351 25.5 574t125.5 356q111 147 291.5 192.5t454.5 53.5zM1360 2408l-664 414
l168 217l602 -463z" />
    <glyph glyph-name="ocircumflex" unicode="&#xf4;" horiz-adv-x="2335" 
d="M1159 1913h-102q-297 0 -402 -119q-67 -75 -88.5 -219.5t-29.5 -398.5q8 -33 8 -95q0 -73 -8 -114q8 -231 25.5 -367t68.5 -215q64 -100 202.5 -126t342.5 -26q180 0 306.5 20.5t188.5 98.5q115 130 115 570v159q0 267 -18.5 444t-88.5 261q-66 83 -198.5 105t-321.5 22z
M1106 2175q314 0 508 -33t307 -151q133 -135 167 -360.5t34 -581.5q0 -334 -38 -557t-188 -357q-121 -105 -314.5 -132.5t-463.5 -27.5q-282 0 -472.5 50t-293.5 208q-143 208 -143 766q0 351 25.5 574t125.5 356q111 147 291.5 192.5t454.5 53.5zM1880 2576l-99 -168
l-614 312l-631 -312l-90 168l721 447z" />
    <glyph glyph-name="odieresis" unicode="&#xf6;" horiz-adv-x="2335" 
d="M1159 1913h-102q-297 0 -402 -119q-67 -75 -88.5 -219.5t-29.5 -398.5q8 -33 8 -95q0 -73 -8 -114q8 -231 25.5 -367t68.5 -215q64 -100 202.5 -126t342.5 -26q180 0 306.5 20.5t188.5 98.5q115 130 115 570v159q0 267 -18.5 444t-88.5 261q-66 83 -198.5 105t-321.5 22z
M1106 2175q314 0 508 -33t307 -151q133 -135 167 -360.5t34 -581.5q0 -334 -38 -557t-188 -357q-121 -105 -314.5 -132.5t-463.5 -27.5q-282 0 -472.5 50t-293.5 208q-143 208 -143 766q0 351 25.5 574t125.5 356q111 147 291.5 192.5t454.5 53.5zM1396 2671h361v-304h-361
v304zM573 2671h361v-304h-361v304z" />
    <glyph glyph-name="otilde" unicode="&#xf5;" horiz-adv-x="2335" 
d="M1159 1913h-102q-297 0 -402 -119q-67 -75 -88.5 -219.5t-29.5 -398.5q8 -33 8 -95q0 -73 -8 -114q8 -231 25.5 -367t68.5 -215q64 -100 202.5 -126t342.5 -26q180 0 306.5 20.5t188.5 98.5q115 130 115 570v159q0 267 -18.5 444t-88.5 261q-66 83 -198.5 105t-321.5 22z
M1106 2175q314 0 508 -33t307 -151q133 -135 167 -360.5t34 -581.5q0 -334 -38 -557t-188 -357q-121 -105 -314.5 -132.5t-463.5 -27.5q-282 0 -472.5 50t-293.5 208q-143 208 -143 766q0 351 25.5 574t125.5 356q111 147 291.5 192.5t454.5 53.5zM1442 2400
q-71 0 -134.5 22t-155 65.5t-156.5 66t-132 22.5q-78 0 -113.5 -37.5t-95.5 -130.5l-184 103q171 307 393 307q87 0 190 -44l206 -88t190 -44q79 0 128.5 45.5t109.5 134.5l176 -119q-69 -118 -182 -210.5t-240 -92.5z" />
    <glyph glyph-name="uacute" unicode="&#xfa;" horiz-adv-x="2335" 
d="M1720 287l-8 -8q-85 -181 -265 -242.5t-431 -61.5q-387 0 -570 177q-184 184 -184 553v1445h332v-1413q0 -182 21 -264.5t73 -136.5q98 -103 402 -103q127 6 211.5 16.5t168 44t140.5 99.5q110 121 110 447v1310h328v-2150h-328v287zM782 2584l610 463l160 -217
l-655 -414z" />
    <glyph glyph-name="ugrave" unicode="&#xf9;" horiz-adv-x="2335" 
d="M1720 287l-8 -8q-85 -181 -265 -242.5t-431 -61.5q-387 0 -570 177q-184 184 -184 553v1445h332v-1413q0 -182 21 -264.5t73 -136.5q98 -103 402 -103q127 6 211.5 16.5t168 44t140.5 99.5q110 121 110 447v1310h328v-2150h-328v287zM1278 2408l-664 414l168 217
l602 -463z" />
    <glyph glyph-name="ucircumflex" unicode="&#xfb;" horiz-adv-x="2335" 
d="M1720 287l-8 -8q-85 -181 -265 -242.5t-431 -61.5q-387 0 -570 177q-184 184 -184 553v1445h332v-1413q0 -182 21 -264.5t73 -136.5q98 -103 402 -103q127 6 211.5 16.5t168 44t140.5 99.5q110 121 110 447v1310h328v-2150h-328v287zM1880 2576l-99 -168l-614 312
l-631 -312l-90 168l721 447z" />
    <glyph glyph-name="udieresis" unicode="&#xfc;" horiz-adv-x="2335" 
d="M1720 287l-8 -8q-85 -181 -265 -242.5t-431 -61.5q-387 0 -570 177q-184 184 -184 553v1445h332v-1413q0 -182 21 -264.5t73 -136.5q98 -103 402 -103q127 6 211.5 16.5t168 44t140.5 99.5q110 121 110 447v1310h328v-2150h-328v287zM1396 2671h361v-304h-361v304z
M573 2671h361v-304h-361v304z" />
    <glyph glyph-name="dagger" unicode="&#x2020;" 
d="M1233 3072h352v-848h713v-278h-713v-2802h-352v2802h-705v278h705v848z" />
    <glyph glyph-name="cent" unicode="&#xa2;" 
d="M1225 2511v307h270v-307q198 -7 333 -42t245 -134q168 -147 168 -541h-328v94q0 166 -66 246q-76 100 -352 115v-1671q289 0 385 110q82 95 82 361v69h328q0 -228 -38 -389.5t-147 -265.5q-183 -152 -610 -152v-336h-270v336q-412 0 -594 193q-134 141 -182 363.5
t-48 541.5q8 304 32.5 476t86.5 282q69 141 178 215t235 99t292 30zM1225 2249q-284 -15 -394 -168q-53 -87 -65 -247.5t-12 -473.5q0 -534 135 -664q109 -104 336 -118v1671z" />
    <glyph glyph-name="sterling" unicode="&#xa3;" 
d="M2617 2150h-327v74q0 342 -99 447q-73 76 -189.5 95t-346.5 27q-2 0 -176 -3.5t-267 -23t-155 -71.5q-76 -57 -97.5 -190t-21.5 -355v-663h868v-287h-868v-328v-90q0 -368 -258 -512l8 -12l1983 37v-295h-2384v262q187 23 243 178.5t56 390.5v369h-377v287h377v713
q0 511 205 704q118 113 300 149t453 44q322 0 547.5 -41.5t341.5 -151.5q118 -112 151 -294.5t33 -459.5z" />
    <glyph glyph-name="section" unicode="&#xa7;" 
d="M647 1241q0 -202 98 -283q54 -41 205 -94l660 -184q169 -49 254 -49q171 0 233 119t62 315q0 164 -85 237.5t-268 131.5l-708 204q-114 25 -193 25q-157 0 -207.5 -116.5t-50.5 -305.5zM2408 2281h-303v54q0 292 -98 377q-62 65 -172.5 77t-409.5 21h-168
q-271 0 -376 -74q-107 -74 -107 -360q0 -272 107 -336q95 -68 217 -86l430 -123q204 -57 349.5 -98t258 -84.5t174.5 -96.5q164 -128 164 -434q-6 -166 -25 -272t-87.5 -198.5t-202.5 -135.5q184 -65 251.5 -217.5t67.5 -380.5q0 -522 -221 -676q-120 -80 -268.5 -103.5
t-366.5 -23.5q-70 -8 -213 -8h-143q-216 0 -384 27.5t-288 107.5q-234 167 -234 721h304q3 -65 5.5 -133t11 -126.5t27.5 -106.5t54 -80q91 -79 248 -99t407 -20h193q289 0 397 61q154 88 168 385q0 134 -22.5 238t-104.5 155q-65 37 -169.5 69.5t-245.5 67t-267 65.5
t-223 61q-19 6 -209.5 53.5t-299 91.5t-179.5 113q-73 73 -92 186t-19 293q0 285 90 405.5t262 147.5v8q-233 100 -233 524q12 481 184 635q71 58 162 88t178.5 39.5t199 12t263.5 4.5q276 -8 380 -14.5t227 -41.5t200 -112q151 -152 151 -648z" />
    <glyph glyph-name="bullet" unicode="&#x2022;" horiz-adv-x="2130" 
d="M1057 2306q214 0 392 -104.5t280 -282t102 -383.5q0 -209 -99 -384.5t-271.5 -278t-379.5 -103.5q-206 0 -385.5 96.5t-288 270.5t-112.5 399q0 206 100 383.5t275 282t387 104.5z" />
    <glyph glyph-name="paragraph" unicode="&#xb6;" 
d="M999 2785q-319 0 -421 -114q-59 -67 -75 -180t-16 -283q0 -210 19 -348.5t92 -237.5q48 -62 149 -98.5t203 -36.5h754v1298h-705zM983 3072h1704v-3928h-311v3641h-361v-3641h-311v2056h-766q-424 0 -610 209q-193 222 -193 725q0 528 193 721q207 217 655 217z" />
    <glyph glyph-name="germandbls" unicode="&#xdf;" horiz-adv-x="2417" 
d="M664 2441v-2441h-328v2425q0 350 160 504q59 59 137.5 93t163 49t186.5 19.5t160 6.5q493 0 696 -144q201 -147 201 -475q-6 -191 -99 -314.5t-311 -181.5v-16q241 -28 367.5 -145t164.5 -277t38 -368v-218q0 -371 -69.5 -579.5t-222.5 -301.5t-421 -110
q-344 14 -488 168q-78 88 -107.5 176t-35.5 250q8 33 8 86h303q0 -183 44.5 -270.5t100.5 -108.5t167 -35q185 13 266 78q119 146 119 561v279q0 205 -34.5 347t-154.5 236t-356 105h-328v266h258q198 17 290 43.5t132 108.5q33 61 33 217q0 177 -94 279q-78 77 -344 77h-74
q-273 0 -398 -66.5t-130 -322.5z" />
    <glyph glyph-name="registered" unicode="&#xae;" horiz-adv-x="3191" 
d="M1729 2200h-463v-570h479q186 0 297.5 67.5t116.5 248.5q0 254 -430 254zM1786 2408q359 0 490.5 -128.5t131.5 -342.5q-6 -260 -163 -372t-390 -115l521 -795h-271l-495 770h-344v-770h-250v1753h770zM1593 2847q-354 0 -657 -177.5t-480 -480.5t-177 -661
q16 -365 187.5 -659.5t464.5 -464.5t654 -179q277 0 520 105.5t422 290.5t278 427t99 504q0 361 -177 658t-478 467t-656 170zM1622 3097q326 -6 604.5 -123.5t485 -328t323 -496.5t123.5 -621q0 -331 -118.5 -610.5t-332 -487.5t-495 -328.5t-602.5 -142.5
q-317 0 -603.5 119t-507.5 339.5t-343.5 518.5t-122.5 641q12 430 225.5 775t573 540.5t790.5 204.5z" />
    <glyph glyph-name="copyright" unicode="&#xa9;" horiz-adv-x="3191" 
d="M2150 1249h242q-35 -276 -244 -443t-493 -167q-210 0 -408.5 107.5t-325 313t-130.5 484.5q8 25 8 66q12 198 86 353.5t192 261.5t265 161t305 55q195 -5 350.5 -68t259 -193.5t135.5 -324.5h-242q-39 189 -168 283t-364 94q-177 -4 -305.5 -94.5t-196 -247.5t-67.5 -354
q6 -294 172.5 -488t433.5 -200q175 0 325.5 100.5t169.5 300.5zM1610 2847q-341 0 -648 -175.5t-493 -470.5t-190 -632q0 -355 172.5 -665.5t473 -496.5t660.5 -190q257 0 495 104t424 288t293 427.5t107 507.5q-6 268 -109.5 504.5t-283 415.5t-413.5 279.5t-488 103.5z
M1610 3097q427 0 785 -217.5t564.5 -584t206.5 -784.5q0 -310 -125 -590t-344.5 -493.5t-502 -333t-584.5 -119.5q-440 0 -802.5 209.5t-568.5 567.5t-206 776q0 419 206 780.5t567.5 575t803.5 213.5z" />
    <glyph glyph-name="trademark" unicode="&#x2122;" horiz-adv-x="4096" 
d="M258 3072h1397v-250h-549v-1479h-307v1479h-541v250zM1946 3072h454l496 -1217l512 1217h446v-1729h-278v1479h-8l-590 -1479h-160l-577 1479h-9v-1479h-286v1729z" />
    <glyph glyph-name="acute" unicode="&#xb4;" horiz-adv-x="1384" 
d="M303 2576l610 463l160 -217l-655 -414z" />
    <glyph glyph-name="dieresis" unicode="&#xa8;" horiz-adv-x="1794" 
d="M1126 2671h361v-304h-361v304zM303 2671h361v-304h-361v304z" />
    <glyph glyph-name="AE" unicode="&#xc6;" horiz-adv-x="4280" 
d="M1872 2769l-983 -1827h1278v1827h-295zM4129 0h-1962v631h-1438l-352 -631h-410l1696 3072h2466v-303h-1618v-1049h1536v-286h-1536v-1131h1618v-303z" />
    <glyph glyph-name="Oslash" unicode="&#xd8;" horiz-adv-x="2961" 
d="M606 512q74 -132 200.5 -175t344.5 -58h664q338 0 483 151q143 163 143 520v1340zM2351 2568q-63 136 -192 177t-361 48h-565q-255 -7 -404.5 -51.5t-222.5 -181.5q-46 -83 -66 -200.5t-20 -405.5v-1172zM2703 2568q82 -127 82 -344v-1274q0 -458 -200 -717
q-120 -153 -351 -205.5t-555 -52.5h-471q-298 0 -507 62.5t-341 241.5l-294 -279v336l184 176q-82 239 -82 430v922q0 214 11 357.5t58 294t148 277.5q135 172 345.5 238t502.5 66h582q543 0 778 -295l303 278v-360z" />
    <glyph glyph-name="plusminus" unicode="&#xb1;" horiz-adv-x="2392" 
d="M201 1528h839v622h312v-622h831v-311h-831v-623h-312v623h-839v311zM201 344h1982v-303h-1982v303z" />
    <glyph glyph-name="yen" unicode="&#xa5;" 
d="M152 3072h409l856 -1442l856 1442h398l-607 -975h422v-291h-598l-278 -454h876v-287h-917l8 -1065h-352v1065h-889v287h848l-279 454h-569v291h409z" />
    <glyph glyph-name="mu" unicode="&#xb5;" horiz-adv-x="2335" 
d="M1729 872v1278h327v-2150h-327v279h-9q-132 -304 -671 -304q-145 0 -248.5 15.5t-202.5 66.5v-995h-328v3088h328v-1429q0 -299 107 -393q94 -95 335 -95q194 0 333.5 26t236.5 126q119 119 119 414v73z" />
    <glyph glyph-name="ordfeminine" unicode="&#xaa;" horiz-adv-x="1798" 
d="M168 1257v222h1462v-222h-1462zM1274 1880l-8 8q-71 -74 -165 -100.5t-253 -26.5q-339 0 -463 103q-115 99 -115 295q0 218 123 319q77 70 192.5 88.5t278.5 18.5q135 0 226.5 -20t158.5 -87q-5 37 -9 118.5t-11.5 126t-28.5 79.5q-51 94 -278 94h-58q-143 0 -217 -28
t-86 -140q8 -8 8 -33h-241q0 236 135 328q115 74 426 74q210 0 337 -32t194 -121t67 -257v-901h-213v94zM586 2335q-49 -55 -49 -160q0 -94 24 -143q30 -52 101.5 -65t209.5 -13q164 0 266.5 33.5t102.5 162.5q0 134 -80.5 184t-230.5 50h-123q-178 0 -221 -49z" />
    <glyph glyph-name="ordmasculine" unicode="&#xba;" horiz-adv-x="1798" 
d="M905 3097q211 0 332 -33.5t188 -143.5q78 -123 78 -487q0 -381 -69 -487q-63 -111 -190 -152t-339 -41q-199 8 -308.5 29t-178.5 90q-67 67 -95 194.5t-28 358.5q0 195 14.5 306.5t59.5 180.5q60 101 187.5 140t348.5 45zM913 2896q-144 0 -210 -11.5t-109 -62.5
q-57 -71 -57 -381q0 -331 49 -409q26 -47 79.5 -63t165.5 -23q25 8 74 8q135 0 199.5 17.5t103.5 76.5q34 45 41.5 125t7.5 260q0 295 -32 369q-34 55 -105.5 74.5t-206.5 19.5zM168 1479h1462v-222h-1462v222z" />
    <glyph glyph-name="ae" unicode="&#xe6;" horiz-adv-x="3817" 
d="M3289 1266q-8 209 -26.5 334.5t-79.5 205.5q-43 55 -119.5 77t-170.5 25t-198 5q-379 0 -504 -119q-67 -75 -88.5 -199t-29.5 -329h1216zM606 950q-60 -70 -78 -237q9 -17 9 -58q0 -32 -9 -61q18 -150 58 -217q33 -60 96.5 -90t151 -39.5t247.5 -14.5q236 0 379 36
t203 132q66 113 66 230q0 208 -91 299q-110 110 -520 110h-94q-328 0 -418 -90zM1888 328q-63 -160 -196 -237t-282.5 -96.5t-344.5 -19.5q-242 0 -401 30.5t-262.5 107t-152 212t-48.5 347.5q0 354 200 495q98 79 240 103t399 24q614 0 680 -213h17v422q0 120 -41 217
q-50 103 -171 148t-366 45q-66 -3 -140.5 -6t-129.5 -10t-114.5 -26.5t-102.5 -55.5q-42 -40 -58 -96t-16 -175h-336q0 356 164 488q171 143 606 143h119q328 0 523.5 -56t246.5 -214q68 159 296.5 214.5t543.5 55.5q446 0 647 -168q85 -70 133 -205t66 -288.5t18 -288.5
v-226h-1552v-176q0 -253 47.5 -371.5t144.5 -164.5q55 -25 124 -35t157.5 -12.5t214.5 -6.5q206 9 305.5 26t157.5 69q65 74 65 319h328v-94q0 -260 -144 -410q-104 -98 -271.5 -133t-432.5 -35h-115q-187 0 -334.5 22.5t-266 101.5t-165.5 229z" />
    <glyph glyph-name="oslash" unicode="&#xf8;" horiz-adv-x="2335" 
d="M385 184l-258 -258v275l160 168q-42 97 -57.5 212.5t-17 234t-3.5 282.5q0 360 43.5 574t165.5 319q136 122 328.5 153t486.5 31q252 0 416 -40t280 -161l246 234v-271l-135 -151q82 -195 82 -545v-176q0 -220 -17 -385.5t-58.5 -284.5t-117.5 -202
q-106 -124 -298.5 -171t-487.5 -47q-567 0 -758 209zM614 418q38 -115 199.5 -150t378.5 -35q86 4 151 7t117 10.5t102.5 26t92.5 51.5q107 86 123 602v196v394zM561 631l1151 1114q-87 168 -536 168q-212 0 -331 -20t-190 -99q-110 -131 -110 -475q0 -222 16 -688z" />
    <glyph glyph-name="questiondown" unicode="&#xbf;" horiz-adv-x="2392" 
d="M1167 1266h353q0 -336 -70 -467q-72 -116 -173 -167t-307 -125t-298 -147q-68 -52 -89.5 -155.5t-21.5 -331.5q0 -296 78 -401q54 -69 178.5 -94t374.5 -25q261 0 383.5 23.5t185.5 111.5q70 96 70 410v143h328q0 -312 -33.5 -494t-118.5 -284q-109 -137 -286 -175.5
t-504 -45.5q-278 0 -455 31t-291 112q-125 89 -181.5 249t-56.5 423q0 189 13.5 324.5t73 263.5t184.5 202q111 75 310.5 146t217.5 79q92 62 119 119q16 58 16 275zM1520 1729h-361v421h361v-421z" />
    <glyph glyph-name="exclamdown" unicode="&#xa1;" horiz-adv-x="1106" 
d="M360 2150h361v-421h-361v421zM393 1303h295l17 -840l8 -799l8 -594h-361l25 1659z" />
    <glyph glyph-name="logicalnot" unicode="&#xac;" horiz-adv-x="2392" 
d="M201 1630h1982v-1102h-303v799h-1679v303z" />
    <glyph glyph-name="florin" unicode="&#x192;" 
d="M369 -664q207 -24 245 -24q279 0 353 209q13 33 200 1102l193 1097h-418l41 262h426q15 79 52.5 319t81.5 388.5t120 230.5q161 177 528 177q79 0 171.5 -4.5t131.5 -4.5l-36 -270q-41 0 -125 2t-125 2q-223 0 -303 -86q-30 -34 -54 -125.5t-66.5 -344.5t-47.5 -284h569
l-49 -262h-569l-369 -2080q-59 -337 -193 -447q-95 -90 -227 -116.5t-313 -26.5q-121 0 -258 20z" />
    <glyph glyph-name="guillemotleft" unicode="&#xab;" horiz-adv-x="2064" 
d="M1610 0l-627 1184l553 1167l242 -143l-484 -1024l537 -1041zM848 0l-623 1184l557 1167l234 -143l-479 -1024l536 -1041z" />
    <glyph glyph-name="guillemotright" unicode="&#xbb;" horiz-adv-x="2064" 
d="M225 143l537 1041l-483 1024l241 143l553 -1167l-627 -1184zM983 143l537 1041l-480 1024l234 143l557 -1167l-623 -1184z" />
    <glyph glyph-name="ellipsis" unicode="&#x2026;" horiz-adv-x="4096" 
d="M504 418h360v-418h-360v418zM1864 0v418h368v-418h-368zM3232 418h368v-418h-368v418z" />
    <glyph glyph-name="Agrave" unicode="&#xc0;" horiz-adv-x="2810" 
d="M721 938h1360l-688 1847zM1143 3072h487l1155 -3072h-360l-250 647h-1552l-238 -647h-360zM1680 3330l-664 414l168 217l602 -463z" />
    <glyph glyph-name="Atilde" unicode="&#xc3;" horiz-adv-x="2810" 
d="M721 938h1360l-688 1847zM1143 3072h487l1155 -3072h-360l-250 647h-1552l-238 -647h-360zM1675 3330q-71 0 -134.5 22t-155 65.5t-156.5 66t-132 22.5q-78 0 -113.5 -37.5t-95.5 -130.5l-184 103q171 307 393 307q87 0 190 -44l206 -88t190 -44q79 0 128.5 45.5
t109.5 134.5l176 -119q-69 -118 -182 -210.5t-240 -92.5z" />
    <glyph glyph-name="Otilde" unicode="&#xd5;" horiz-adv-x="2753" 
d="M1360 2793h-127q-169 0 -286.5 -13.5t-209 -59t-143.5 -135.5q-59 -115 -69.5 -280t-12.5 -216v-1122q0 -320 102 -504q66 -112 199 -144t363 -40h200q330 0 492.5 26t245.5 133q118 159 118 504v1180q0 381 -135 524q-93 106 -299 131q-77 9 -233.5 11t-204.5 5z
M1368 3097q250 0 432 -14.5t352.5 -77t264.5 -195.5q40 -38 99.5 -219t59.5 -592v-1057q0 -254 -40.5 -399.5t-118.5 -272.5q-80 -127 -227.5 -193t-306.5 -84t-347 -18h-352q-266 0 -469 47.5t-346 194.5q-201 221 -201 733v1090q0 168 8.5 291.5t42 245.5t100.5 225
q91 131 239 196t309 82t390 17h111zM1651 3330q-71 0 -134.5 22t-155 65.5t-156.5 66t-132 22.5q-78 0 -113.5 -37.5t-95.5 -130.5l-184 103q171 307 393 307q87 0 190 -44l206 -88t190 -44q79 0 128.5 45.5t109.5 134.5l176 -119q-69 -118 -182 -210.5t-240 -92.5z" />
    <glyph glyph-name="OE" unicode="&#x152;" horiz-adv-x="4542" 
d="M1450 2793q-117 -2 -249 -5.5t-243 -21t-203 -62.5t-141 -128q-94 -182 -94 -585l-8 -967q0 -182 34 -337.5t101 -231.5q59 -69 150 -105.5t195 -50t278.5 -17t183.5 -3.5q343 0 532 27.5t295 139.5q56 65 96 225t40 353v913q0 275 -29.5 442.5t-122.5 262.5
q-66 66 -199.5 99.5t-282.5 42.5t-333 9zM2425 319h-8q-113 -214 -337.5 -279t-568.5 -65h-135q-240 0 -409 14t-324.5 71.5t-257.5 172.5q-63 67 -112.5 184.5t-77 272.5t-27.5 326v905q0 240 52 492.5t132 355.5q161 202 447.5 265t662.5 63q379 -8 642.5 -77t312.5 -276
v328h1974v-303h-1622v-1049h1552v-286h-1552v-1131h1622v-303h-1966v319z" />
    <glyph glyph-name="oe" unicode="&#x153;" horiz-adv-x="3854" 
d="M3322 1266q-9 230 -26 347t-81 193q-92 107 -393 107h-110q-184 0 -305 -25.5t-191 -101.5q-62 -70 -81.5 -186.5t-29.5 -333.5h1217zM1167 1913h-110q-303 0 -418 -115q-87 -105 -102 -532q8 -66 8 -185q0 -73 -8 -114q8 -226 25.5 -359.5t68.5 -206.5
q70 -105 200.5 -132t327.5 -27q183 0 313 20.5t191 97.5q106 140 106 545v344q0 418 -98 545q-92 119 -454 119h-50zM1937 270q-74 -183 -258 -234.5t-495 -51.5q-33 -9 -74 -9q-279 9 -462 62t-296 205q-143 218 -143 766q0 401 24 577q27 213 127 352q129 158 342.5 198
t522.5 40q288 0 481 -63t231 -240q55 140 182.5 204.5t256.5 78t368 20.5q511 -18 680 -160q126 -108 180 -319.5t54 -438.5v-258h-1553l9 -319q4 -213 70.5 -305.5t188.5 -114.5t396 -27q238 11 310 19t136 43q107 74 107 352h336q0 -369 -168 -512q-110 -97 -281.5 -128.5
t-447.5 -31.5q-332 0 -538 52t-286 243z" />
    <glyph glyph-name="emdash" unicode="&#x2013;" horiz-adv-x="2048" 
d="M0 1274h2048v-307h-2048v307z" />
    <glyph glyph-name="endash" unicode="&#x2014;" horiz-adv-x="4096" 
d="M0 1274h4088h8v-316h-4088l-8 9v307z" />
    <glyph glyph-name="quotedblleft" unicode="&#x201c;" horiz-adv-x="1470" 
d="M209 2216v496q0 244 86.5 314.5t257.5 70.5h61v-185q-129 0 -162.5 -63t-33.5 -207h151v-426h-360zM848 2216v496q0 179 55 263.5t136 103t218 18.5v-185q-119 0 -167 -57q-14 -20 -20 -52.5t-8 -82.5t-5 -78h160v-426h-369z" />
    <glyph glyph-name="quotedblright" unicode="&#x201d;" horiz-adv-x="1470" 
d="M250 3072h364v-520q0 -152 -61.5 -252t-200.5 -100q-41 -9 -143 -9v185q122 11 161.5 77t39.5 201h-160v418zM897 3072h360v-496q0 -347 -233 -376q-49 -9 -176 -9v185q134 10 184 73q17 62 17 111v94h-152v418z" />
    <glyph glyph-name="quoteleft" unicode="&#x2018;" horiz-adv-x="823" 
d="M418 2744v-102h151v-426h-360v504q0 208 61 278q66 99 258 99h86v-185q-196 0 -196 -168z" />
    <glyph glyph-name="quoteright" unicode="&#x2019;" horiz-adv-x="823" 
d="M250 3072h364v-520q0 -162 -47.5 -241t-129.5 -99.5t-228 -20.5v185q120 6 160.5 56.5t40.5 221.5h-160v418z" />
    <glyph glyph-name="ydieresis" unicode="&#xff;" horiz-adv-x="1794" 
d="M872 0h-110q-132 362 -206 567t-143 398t-207 576.5t-222 608.5h327l664 -1917h8l487 1917h336l-319 -1167q-154 -666 -369 -1376q-76 -251 -235.5 -404t-403.5 -153q-18 0 -50.5 2.5t-65.5 5.5t-52 4v250q55 -12 103 -12q157 0 240.5 101t129 268.5t88.5 330.5z
M1126 2671h361v-304h-361v304zM303 2671h361v-304h-361v304z" />
    <glyph glyph-name="currency" unicode="&#xa4;" 
d="M1384 1855q-209 0 -340 -142t-131 -345q0 -131 60 -241t166 -174t237 -64q136 0 252.5 66t184 182t67.5 256q0 126 -70 232.5t-185.5 168t-240.5 61.5zM762 958q-123 172 -123 418q0 293 143 410l-237 246l225 241l238 -250q180 95 385 107q206 0 413 -107l226 226
l249 -250l-241 -221q43 -61 72.5 -173t29.5 -221q0 -208 -119 -393l234 -237l-242 -226l-217 226q-217 -140 -430 -140q-176 0 -360 107l-217 -209l-230 242z" />
    <glyph glyph-name="guilsinglleft" unicode="&#x2039;" horiz-adv-x="1303" 
d="M848 0l-623 1184l557 1167l234 -143l-479 -1024l536 -1041z" />
    <glyph glyph-name="guilsinglright" unicode="&#x203a;" horiz-adv-x="1303" 
d="M225 143l537 1041l-483 1024l241 143l553 -1167l-627 -1184z" />
    <glyph glyph-name="fi" unicode="&#xf001;" horiz-adv-x="2089" 
d="M1479 3072h327v-360h-327v360zM1479 2150h327v-2150h-327v2150zM1249 3088v-266q-29 0 -104 4t-121 4q-152 0 -242 -45q-102 -72 -102 -299v-336h569v-262h-569v-1888h-320v1888h-327v262h327v324q0 333 152 479q154 144 537 144q49 0 107 -4.5t93 -4.5z" />
    <glyph glyph-name="fl" unicode="&#xf002;" horiz-adv-x="2105" 
d="M1495 3072h328v-3072h-328v3072zM1249 3088v-266q-65 8 -209 8q-178 0 -258 -45q-102 -72 -102 -299v-336h577v-262h-577v-1888h-320v1888h-327v262h327v328q0 317 152 475q144 144 520 144q135 0 217 -9z" />
    <glyph glyph-name="daggerdbl" unicode="&#x2021;" 
d="M1233 3072h352v-967h713v-290h-713v-1344h713v-287h-713v-1040h-352v1040h-705v287h705v1344h-705v290h705v967z" />
    <glyph glyph-name="quotedblbase" unicode="&#x201e;" horiz-adv-x="1470" 
d="M897 418h360v-484q0 -182 -51.5 -268t-133 -107.5t-224.5 -21.5v184q84 9 123 22.5t61 55.5q17 33 17 201h-152v418zM250 418h364v-484q0 -169 -36 -253t-121 -114t-248 -30v184q96 4 139 35t52.5 83.5t9.5 160.5h-160v418z" />
    <glyph glyph-name="perthousand" unicode="&#x2030;" horiz-adv-x="5247" 
d="M4489 1536q190 0 320 -17t217 -85q135 -118 135 -443v-311v-168q0 -335 -160 -446q-141 -85 -504 -99q-84 4 -176 8t-166.5 19.5t-140.5 54.5q-89 50 -134.5 157t-45.5 322v455q0 347 160 467q127 86 495 86zM4473 1303h-127q-153 0 -209 -46q-66 -64 -66 -241v-512
q0 -185 66 -246q55 -51 254 -65q33 8 90 8q78 0 111 -8q194 11 249 57q70 60 70 295v422q0 232 -53 290q-61 46 -275 46h-110zM2855 1536q401 0 528 -111q152 -126 152 -442v-487q-11 -319 -176 -430q-136 -91 -488 -91h-94q-275 0 -393 66q-91 58 -137.5 165.5t-46.5 321.5
v455q0 343 151 459q87 64 202.5 79t301.5 15zM2847 1311q-86 -4 -146.5 -7t-112.5 -12.5t-85 -34.5q-62 -55 -62 -249v-521q0 -178 62 -229q60 -51 258 -65q32 8 86 8q181 0 252 7.5t108 41.5q82 66 82 287v430q0 217 -65 282q-46 43 -124.5 52.5t-252.5 9.5zM745 3097
q190 0 320 -18.5t209 -88.5q139 -116 151 -446v-488q-11 -312 -176 -434q-80 -53 -160 -63t-212 -11.5t-205 -19.5q-287 16 -402 82q-91 51 -137.5 159t-46.5 320v455q0 342 156 462q83 60 200 75.5t303 15.5zM737 2871h-82q-200 0 -262 -53q-57 -48 -57 -242v-528
q0 -176 57 -233q55 -48 254 -62q33 8 90 8q178 0 248.5 6.5t112.5 38.5q78 74 78 291v430q0 225 -66 291q-41 37 -119.5 45t-253.5 8zM2695 3072h291l-2089 -3097h-274z" />
    <glyph glyph-name="Acircumflex" unicode="&#xc2;" horiz-adv-x="2810" 
d="M721 938h1360l-688 1847zM1143 3072h487l1155 -3072h-360l-250 647h-1552l-238 -647h-360zM2122 3498l-99 -168l-614 312l-631 -312l-90 168l721 447z" />
    <glyph glyph-name="Ecircumflex" unicode="&#xca;" horiz-adv-x="2298" 
d="M168 0v3072h1974v-303h-1630v-1049h1561v-286h-1561v-1131h1630v-303h-1974zM1864 3498l-99 -168l-614 312l-631 -312l-90 168l721 447z" />
    <glyph glyph-name="Aacute" unicode="&#xc1;" horiz-adv-x="2810" 
d="M721 938h1360l-688 1847zM1143 3072h487l1155 -3072h-360l-250 647h-1552l-238 -647h-360zM1016 3506l610 463l160 -217l-655 -414z" />
    <glyph glyph-name="Edieresis" unicode="&#xcb;" horiz-adv-x="2298" 
d="M168 0v3072h1974v-303h-1630v-1049h1561v-286h-1561v-1131h1630v-303h-1974zM1376 3601h361v-304h-361v304zM553 3601h361v-304h-361v304z" />
    <glyph glyph-name="Egrave" unicode="&#xc8;" horiz-adv-x="2298" 
d="M168 0v3072h1974v-303h-1630v-1049h1561v-286h-1561v-1131h1630v-303h-1974zM1422 3330l-664 414l168 217l602 -463z" />
    <glyph glyph-name="Iacute" unicode="&#xcd;" horiz-adv-x="938" 
d="M295 3072h344v-3072h-344v3072zM78 3506l610 463l160 -217l-655 -414z" />
    <glyph glyph-name="Icircumflex" unicode="&#xce;" horiz-adv-x="938" 
d="M295 3072h344v-3072h-344v3072zM1184 3498l-99 -168l-614 312l-631 -312l-90 168l721 447z" />
    <glyph glyph-name="Idieresis" unicode="&#xcf;" horiz-adv-x="938" 
d="M295 3072h344v-3072h-344v3072zM696 3601h361v-304h-361v304zM-127 3601h361v-304h-361v304z" />
    <glyph glyph-name="Igrave" unicode="&#xcc;" horiz-adv-x="938" 
d="M295 3072h344v-3072h-344v3072zM742 3330l-664 414l168 217l602 -463z" />
    <glyph glyph-name="Oacute" unicode="&#xd3;" horiz-adv-x="2753" 
d="M1360 2793h-127q-169 0 -286.5 -13.5t-209 -59t-143.5 -135.5q-59 -115 -69.5 -280t-12.5 -216v-1122q0 -320 102 -504q66 -112 199 -144t363 -40h200q330 0 492.5 26t245.5 133q118 159 118 504v1180q0 381 -135 524q-93 106 -299 131q-77 9 -233.5 11t-204.5 5z
M1368 3097q250 0 432 -14.5t352.5 -77t264.5 -195.5q40 -38 99.5 -219t59.5 -592v-1057q0 -254 -40.5 -399.5t-118.5 -272.5q-80 -127 -227.5 -193t-306.5 -84t-347 -18h-352q-266 0 -469 47.5t-346 194.5q-201 221 -201 733v1090q0 168 8.5 291.5t42 245.5t100.5 225
q91 131 239 196t309 82t390 17h111zM991 3506l610 463l160 -217l-655 -414z" />
    <glyph glyph-name="Ocircumflex" unicode="&#xd4;" horiz-adv-x="2753" 
d="M1360 2793h-127q-169 0 -286.5 -13.5t-209 -59t-143.5 -135.5q-59 -115 -69.5 -280t-12.5 -216v-1122q0 -320 102 -504q66 -112 199 -144t363 -40h200q330 0 492.5 26t245.5 133q118 159 118 504v1180q0 381 -135 524q-93 106 -299 131q-77 9 -233.5 11t-204.5 5z
M1368 3097q250 0 432 -14.5t352.5 -77t264.5 -195.5q40 -38 99.5 -219t59.5 -592v-1057q0 -254 -40.5 -399.5t-118.5 -272.5q-80 -127 -227.5 -193t-306.5 -84t-347 -18h-352q-266 0 -469 47.5t-346 194.5q-201 221 -201 733v1090q0 168 8.5 291.5t42 245.5t100.5 225
q91 131 239 196t309 82t390 17h111zM2089 3498l-99 -168l-614 312l-631 -312l-90 168l721 447z" />
    <glyph glyph-name="Ograve" unicode="&#xd2;" horiz-adv-x="2753" 
d="M1360 2793h-127q-169 0 -286.5 -13.5t-209 -59t-143.5 -135.5q-59 -115 -69.5 -280t-12.5 -216v-1122q0 -320 102 -504q66 -112 199 -144t363 -40h200q330 0 492.5 26t245.5 133q118 159 118 504v1180q0 381 -135 524q-93 106 -299 131q-77 9 -233.5 11t-204.5 5z
M1368 3097q250 0 432 -14.5t352.5 -77t264.5 -195.5q40 -38 99.5 -219t59.5 -592v-1057q0 -254 -40.5 -399.5t-118.5 -272.5q-80 -127 -227.5 -193t-306.5 -84t-347 -18h-352q-266 0 -469 47.5t-346 194.5q-201 221 -201 733v1090q0 168 8.5 291.5t42 245.5t100.5 225
q91 131 239 196t309 82t390 17h111zM1565 3330l-664 414l168 217l602 -463z" />
    <glyph glyph-name="Uacute" unicode="&#xda;" horiz-adv-x="3015" 
d="M1511 279q58 0 91 -9q272 10 420.5 34.5t226.5 105.5q84 72 105.5 201t21.5 339v2122h352v-2200q0 -491 -250 -704q-170 -128 -416 -160.5t-620 -32.5q-292 0 -480.5 22.5t-355.5 113.5q-109 59 -178.5 171.5t-101 255t-31.5 293.5v2241h344v-2232q0 -360 143 -455
q95 -63 242.5 -83t400.5 -32q29 9 86 9zM1126 3506l610 463l160 -217l-655 -414z" />
    <glyph glyph-name="Ucircumflex" unicode="&#xdb;" horiz-adv-x="3015" 
d="M1511 279q58 0 91 -9q272 10 420.5 34.5t226.5 105.5q84 72 105.5 201t21.5 339v2122h352v-2200q0 -491 -250 -704q-170 -128 -416 -160.5t-620 -32.5q-292 0 -480.5 22.5t-355.5 113.5q-109 59 -178.5 171.5t-101 255t-31.5 293.5v2241h344v-2232q0 -360 143 -455
q95 -63 242.5 -83t400.5 -32q29 9 86 9zM2224 3498l-99 -168l-614 312l-631 -312l-90 168l721 447z" />
    <glyph glyph-name="Ugrave" unicode="&#xd9;" horiz-adv-x="3015" 
d="M1511 279q58 0 91 -9q272 10 420.5 34.5t226.5 105.5q84 72 105.5 201t21.5 339v2122h352v-2200q0 -491 -250 -704q-170 -128 -416 -160.5t-620 -32.5q-292 0 -480.5 22.5t-355.5 113.5q-109 59 -178.5 171.5t-101 255t-31.5 293.5v2241h344v-2232q0 -360 143 -455
q95 -63 242.5 -83t400.5 -32q29 9 86 9zM1622 3330l-664 414l168 217l602 -463z" />
    <glyph glyph-name="dotlessi" unicode="&#x131;" horiz-adv-x="881" 
d="M270 2150h328v-2150h-328v2150z" />
    <glyph glyph-name="circumflex" unicode="&#x2c6;" horiz-adv-x="2040" 
d="M1737 2568l-99 -168l-614 312l-631 -312l-90 168l721 447z" />
    <glyph glyph-name="tilde" unicode="&#x2dc;" horiz-adv-x="1999" 
d="M1274 2400q-71 0 -134.5 22t-155 65.5t-156.5 66t-132 22.5q-78 0 -113.5 -37.5t-95.5 -130.5l-184 103q171 307 393 307q87 0 190 -44l206 -88t190 -44q79 0 128.5 45.5t109.5 134.5l176 -119q-69 -118 -182 -210.5t-240 -92.5z" />
    <glyph glyph-name="breve" unicode="&#x2d8;" horiz-adv-x="1991" 
d="M303 3015h217q37 -170 171 -275.5t300 -105.5q191 0 316.5 111.5t154.5 269.5h226q-21 -158 -115 -300.5t-247 -230.5t-343 -92q-172 0 -322.5 90.5t-245.5 235.5t-112 297z" />
    <glyph glyph-name="ring" unicode="&#x2da;" horiz-adv-x="1319" 
d="M655 3015q144 0 249.5 -103.5t111.5 -249.5q0 -148 -101.5 -252t-250.5 -104q-152 0 -256.5 102t-104.5 254q0 144 106.5 248.5t245.5 104.5zM647 2855q-82 0 -133 -61t-51 -148q0 -76 58 -132t134 -56q84 0 142.5 56t58.5 148q0 81 -61 137t-148 56z" />
    <glyph glyph-name="cedilla" unicode="&#xb8;" horiz-adv-x="1106" 
d="M258 -631l270 463l226 -119l-324 -442z" />
  </font>
</defs>
</svg>
