<?xml version="1.0" standalone="no"?>
<!DOCTYPE svg PUBLIC "-//W3C//DTD SVG 1.1//EN" "http://www.w3.org/Graphics/SVG/1.1/DTD/svg11.dtd" >
<svg xmlns="http://www.w3.org/2000/svg" xmlns:xlink="http://www.w3.org/1999/xlink" version="1.1">
<metadata>
Created by FontForge 20141024 at Mon Oct 12 13:08:12 2015
 By Jimmy Warting
</metadata>
<defs>
<font id="Eurostile-Black" horiz-adv-x="278" >
  <font-face 
    font-family="Eurostile-Black"
    font-weight="500"
    font-stretch="normal"
    units-per-em="1000"
    panose-1="0 0 0 0 0 0 0 0 0 0"
    ascent="800"
    descent="-200"
    x-height="467"
    cap-height="667"
    bbox="-150 -217 1123 878"
    underline-thickness="50"
    underline-position="-55"
    unicode-range="U+0020-F002"
  />
<missing-glyph 
 />
    <glyph glyph-name=".notdef" 
 />
    <glyph glyph-name="glyph1" horiz-adv-x="0" 
 />
    <glyph glyph-name="glyph2" 
 />
    <glyph glyph-name="space" unicode=" " 
 />
    <glyph glyph-name="space" unicode="&#xa0;" 
 />
    <glyph glyph-name="exclam" unicode="!" horiz-adv-x="310" 
d="M217 153v-153h-144v153h144v0zM230 667l-9 -405h-152l-7 405h168v0z" />
    <glyph glyph-name="quotedbl" unicode="&#x22;" horiz-adv-x="450" 
d="M173 399h-118l-31 267h180l-31 -267v0zM394 399h-118l-30 267h179l-31 -267v0z" />
    <glyph glyph-name="numbersign" unicode="#" horiz-adv-x="649" 
d="M429 210l-24 -169h-76l24 169h-98l-24 -169h-76l24 169h-104l10 74h105l13 92h-105l11 74h104l22 155h76l-22 -155h97l22 155h76l-22 -155h113l-11 -74h-112l-13 -92h112l-10 -74h-112v0zM376 376h-98l-12 -92h97l13 92v0z" />
    <glyph glyph-name="dollar" unicode="$" horiz-adv-x="640" 
d="M368 0v-81h-100v82q-54 -1 -98.5 8t-79.5 28q-35 20 -52.5 60.5t-17.5 101.5v3.5v2.5v3.5t1 2.5v3.5v2.5v2v2v1v2l158 2q0 -26 4 -43.5t11 -27.5q8 -10 24.5 -14.5t42.5 -4.5l100 2q2 -1 4.5 -1h4.5q20 0 36 3t26 9q12 6 18 22t6 41v0.5v1.5v1.5v1.5v6t-1 6q0 2 -0.5 5
t-1.5 6q-1 6 -5 10.5t-10 7.5q-7 3 -16 5.5t-21 3.5q-6 1 -12 1.5t-13 1.5q-6 0 -12.5 0.5t-12.5 1.5h-6t-5 1h-6h-6q-6 0 -11.5 0.5t-10.5 1.5h-9.5h-8.5t-7.5 0.5t-6.5 1.5h-2.5t-3.5 1h-2.5h-3.5h-2.5t-2.5 1h-3h-3q-8 1 -16 1.5t-16 1.5t-16.5 2t-16.5 2q-28 4 -53.5 12
t-48.5 20q-24 12 -37 33.5t-16 52.5q0 2 -0.5 4t-0.5 5q-1 2 -1 4v4v4.5v4.5q-1 2 -1 4.5v4.5v4v5v4v4v9.5v8.5v10.5v10.5v10.5t1 11.5q0 8 1 16.5t2 16.5q1 4 1.5 8t1.5 8q1 3 2.5 7t2.5 8q9 23 24 39.5t36 26.5t43.5 16t46.5 9q11 2 20.5 2.5t19.5 0.5h10t9 1h10h9v75h100
v-73q57 -5 100 -15t71 -27q29 -16 43 -57.5t14 -106.5l-151 2q-1 -1 -1 0v2v1.5v1.5v0.5v1.5q0 18 -6.5 30t-18.5 16q-13 5 -26.5 7t-28.5 2h-1.5h-0.5v0v0h-1v0l-87 2q-16 -2 -31 -4t-28 -7q-13 -4 -19.5 -16t-6.5 -32v-8v-3v-2v-1.5v-0.5q0 -6 1 -11l2 -10q2 -5 5 -9t8 -7
q9 -5 21 -8t28 -5q16 -1 34 -2t37 -1q9 -1 19 -1.5t20 -0.5t20 -0.5t20 -1.5q41 -3 77.5 -13.5t70.5 -27.5t51 -52.5t17 -89.5q0 -70 -15 -115.5t-44 -66.5q-29 -22 -77 -32t-116 -10v0z" />
    <glyph glyph-name="percent" unicode="%" horiz-adv-x="807" 
d="M503 178v8.5v9.5v10t1 10q2 20 6.5 39t13.5 36q8 17 24.5 27t40.5 13h6.5t7.5 1h6.5h6.5h14h14q36 0 62.5 -6t42.5 -18q17 -12 25.5 -37.5t8.5 -63.5v-6.5v-6.5q-1 -4 -1 -7v-6v-13.5v-12.5v-6.5v-6.5q-1 -4 -1 -7v-6v-13.5v-12.5q-3 -34 -13 -56t-27 -31q-18 -9 -42 -13
t-55 -4q-36 0 -62.5 5.5t-44.5 18.5q-18 12 -26.5 39t-8.5 67v6v6v6t1 6v3v3v2.5v2.5v6v6v2v0zM591 173v-56q0 -16 2.5 -25.5t8.5 -13.5t16.5 -5.5t25.5 -1.5q17 0 27.5 3t14.5 9q3 6 5 17.5t3 29.5v10t1 10v9v10v19.5v19.5q0 15 -2.5 25.5t-7.5 14.5q-5 5 -14 7.5t-22 2.5
l-29 2q-9 -3 -15 -7.5t-9 -11.5t-4.5 -13.5t-1.5 -14.5v-1.5v-0.5v-1.5v-1.5v-2v-2v-4v-4v-4t1 -4v-5v-4v-4v-4v2v0zM646 667l-393 -667h-80l393 667h80v0zM36 511v8.5v9.5v10.5t1 10.5q2 20 6.5 39t12.5 36t24.5 27t41.5 12h3.5t3.5 1h3h4h3.5t3.5 1h3h4h6h7h6.5h7.5
q35 0 61.5 -6t43.5 -17q17 -12 25.5 -38.5t8.5 -67.5v-13.5v-12.5v-12v-12q-1 -7 -1 -13.5v-12.5v-6v-6v-7v-6q-3 -34 -13 -56.5t-28 -31.5t-42 -13.5t-55 -4.5q-37 0 -64 7t-44 21t-25.5 40.5t-8.5 64.5v6v6v3v3q0 1 0.5 2.5t0.5 2.5v3v3v2.5v2.5v6v6v2v0zM124 506v-31
q0 -23 2 -37.5t6 -20.5t15 -9t30 -3q17 0 27.5 3t14.5 9q3 6 5 17.5t3 28.5v10t1 10v9v10v19.5v19.5q0 14 -2 23.5t-7 15.5q-4 6 -13.5 9t-23.5 3h-4h-4h-2.5h-3.5q-2 -1 -4 -1h-4h-2h-1h-2h-2q-7 -1 -11.5 -3t-7.5 -6t-5 -9t-3 -11q0 -2 -0.5 -4t-0.5 -4q-1 -3 -1 -5v-4
v-8.5v-9.5v-21v0z" />
    <glyph glyph-name="ampersand" unicode="&#x26;" horiz-adv-x="688" 
d="M478 349h143v-74v-9v-8v-4v-3q-1 -2 -1 -3.5v-3.5q0 -12 -1 -24t-3 -24t-5.5 -22t-8.5 -19l74 -64l-79 -94l-61 53q-13 -17 -29.5 -28t-36.5 -16q-19 -5 -38.5 -7t-39.5 -3h-4.5t-4.5 -1h-5.5h-4.5h-8.5h-9.5h-26q-62 0 -113 7t-90 23q-39 15 -58.5 60t-19.5 119
q0 31 5.5 59t17.5 53q11 26 35 39t60 14q-7 6 -12 11.5t-10 10.5q-2 2 -4 4.5t-4 5.5q-1 2 -2.5 4.5t-2.5 4.5q-5 8 -8 17t-4 19q-1 9 -1.5 21.5t-0.5 27.5q0 55 16 89t48 47q32 14 70.5 20.5t84.5 6.5q53 0 95 -7.5t74 -21.5q32 -15 48.5 -52.5t16.5 -98.5v-4v-4v-4t1 -4
v-5v-4v-4v-4l-152 2q0 22 -2.5 38t-7.5 25t-21 13.5t-42 4.5q-13 0 -25 -2t-21 -5q-10 -3 -15 -12.5t-6 -25.5q0 -13 2.5 -23.5t6.5 -18.5q5 -9 11 -17t13 -16q2 -1 3.5 -2.5t2.5 -3.5l1.5 -1.5t1.5 -0.5l1.5 -1.5l1.5 -1.5l154 -135v87v0zM253 295q-15 -4 -24 -10t-11 -17
q-3 -10 -4 -22t-1 -25q0 -29 6 -48.5t18 -28.5t31.5 -13.5t47.5 -4.5l15 2q3 -1 5.5 -1.5t4.5 -0.5h4.5h5.5h4.5t4.5 1h4.5h4.5q9 0 18 2t18 5q3 0 6 1l6 2q3 2 6 3.5t6 2.5l-176 152v0z" />
    <glyph glyph-name="quotesingle" unicode="'" horiz-adv-x="234" 
d="M179 399h-123l-31 267h185l-31 -267v0z" />
    <glyph glyph-name="parenleft" unicode="(" horiz-adv-x="342" 
d="M294 667v-146q-23 -2 -38 -7.5t-23 -15.5q-7 -10 -11 -27t-4 -40v-89l2 -202q-1 -5 -1.5 -8.5t-0.5 -7.5v-8v-8q0 -19 3 -33t10 -25q6 -10 19.5 -15t33.5 -5l10 2v-143q-58 1 -101.5 9.5t-71.5 23.5q-28 16 -45 56t-23 104l-2 32t-1 32v16v17v16v16q-1 20 -1 39.5v38.5
v39.5v38.5q0 82 9.5 139t28.5 88q19 32 70.5 49.5t136.5 21.5v2v0z" />
    <glyph glyph-name="parenright" unicode=")" horiz-adv-x="342" 
d="M48 -111v146q2 -1 3.5 -1h2.5q21 0 34.5 5t20.5 15q7 11 10.5 27.5t3.5 39.5l1 93l-2 202v1t1 2v3.5v3.5v6.5v7.5q0 19 -3 34t-9 26t-19.5 16.5t-33.5 5.5l-10 2v143q57 -4 100 -12.5t72 -22.5q29 -15 46 -55.5t22 -106.5q1 -8 1.5 -16t0.5 -16q1 -9 1 -17v-16v-16t1 -16
v-16v-16v-19.5v-19.5v-10t1 -10v-9.5v-9.5v-20v-20v-19.5v-19.5q0 -82 -9.5 -138t-28.5 -87q-19 -32 -70.5 -49t-136.5 -21v0z" />
    <glyph glyph-name="asterisk" unicode="*" horiz-adv-x="640" 
d="M502 501l-111 -34l67 -96l-65 -49l-69 99l-75 -99l-67 49l68 96l-112 42l28 78l112 -40v120h83v-120l115 40l26 -86v0z" />
    <glyph glyph-name="plus" unicode="+" horiz-adv-x="500" 
d="M7 400h202v201h80v-201h203v-77h-203v-201h-80v201h-202v77v0z" />
    <glyph glyph-name="comma" unicode="," horiz-adv-x="246" 
d="M190 150v-136q0 -41 -7.5 -68.5t-21.5 -42.5t-42 -22.5t-70 -7.5h-2.5h-3.5h-1.5h-1.5q-1 1 -1.5 1h-1.5v67q18 0 29.5 1.5t15.5 4.5q5 3 8 8.5t4 14.5q1 3 1.5 6.5t1.5 7.5t2 7.5t2 8.5h-55v150h144v0z" />
    <glyph glyph-name="hyphen" unicode="-" horiz-adv-x="239" 
d="M10 319h219v-151h-219v151v0z" />
    <glyph glyph-name="period" unicode="." horiz-adv-x="224" 
d="M184 153v-153h-144v153h144v0z" />
    <glyph glyph-name="slash" unicode="/" horiz-adv-x="567" 
d="M513 667l-393 -778h-113l394 778h112v0z" />
    <glyph glyph-name="zero" unicode="0" horiz-adv-x="640" 
d="M43 356v46q0 38 4 75t12 71q8 35 33.5 61t67.5 44q11 5 22.5 8t24.5 4q13 2 26 3l26 2h3.5h3.5h3h3h3.5h3.5h3h3l37 2q16 -2 32 -2.5t32 -0.5q8 0 16 -0.5t17 -0.5l16 -2l16 -2q24 -4 45 -14.5t37 -27.5q17 -18 29.5 -37.5t20.5 -42.5q4 -11 7 -23.5t4 -26.5
q1 -7 1.5 -14t0.5 -13q1 -7 1.5 -14t0.5 -14v-5.5v-4.5v-4.5v-4.5v-17.5v-16.5v-8v-8q-1 -3 -1 -7v-7l-2 -145q-5 -70 -24.5 -114t-53.5 -63t-82.5 -27.5t-111.5 -8.5h-33h-10h-10h-5.5h-4.5q-3 1 -5.5 1h-4.5q-13 1 -26.5 2t-27.5 2q-13 2 -26 6t-24 10q-26 13 -45 31.5
t-30 43.5q-11 24 -18 50t-9 53v4v4q-1 2 -1 4.5v4.5v4v5v4v4v127v0zM213 346v-94q0 -35 5 -57.5t15 -33.5q10 -10 32.5 -15.5t56.5 -5.5q37 0 59 7t29 22q8 15 11.5 38t4.5 54v19.5v19.5v20v20v19.5v19.5v10t1 10v10v10q0 28 -4 48t-12 32t-27.5 18t-50.5 6h-7.5h-7.5h-7.5
h-6.5q-4 -1 -8 -1h-7h-7.5h-7.5q-19 -3 -31.5 -12t-17.5 -23q-6 -14 -9 -29t-4 -31v-6v-6v-6v-6v-7.5v-7.5v-7.5t1 -7.5v-7.5v-7.5v-7.5v-6.5v2v0z" />
    <glyph glyph-name="one" unicode="1" horiz-adv-x="640" 
d="M482 667v-667h-172v509l-175 -157l-100 113l243 202h204v0z" />
    <glyph glyph-name="two" unicode="2" horiz-adv-x="640" 
d="M585 139v-139h-525v151q0 58 14.5 96t44.5 56t68 31.5t84 22.5q4 1 8.5 2t8.5 2q5 0 9.5 1t8.5 2l18 4l18 4h1.5t1.5 1h0.5h1.5h0.5t1.5 1h1.5h1.5q19 5 31.5 11.5t18.5 13.5q6 8 9 23t3 37q0 26 -5.5 41t-16.5 19q-10 5 -26.5 7.5t-38.5 2.5l-10 2q-30 -2 -48 -6.5
t-26 -12.5q-7 -9 -10.5 -27.5t-3.5 -47.5q-1 -2 -1 -4v-4v-2.5v-3.5l-168 2q0 73 14.5 122t44.5 73q29 24 79.5 36.5t120.5 12.5q60 0 108.5 -9t84.5 -27t54 -61.5t18 -113.5q0 -29 -3.5 -56t-9.5 -51q-7 -25 -25 -43.5t-47 -32.5q-14 -7 -29 -12.5t-31 -10.5
q-16 -4 -31.5 -8.5t-32.5 -8.5q-5 -1 -10 -2.5t-10 -2.5q-6 -2 -11 -3l-10 -2l-20 -4l-20 -4q-20 -4 -33.5 -10.5t-19.5 -14.5q-7 -7 -10 -21t-3 -34l357 2v0z" />
    <glyph glyph-name="three" unicode="3" horiz-adv-x="640" 
d="M271 276v128h55q2 -2 4.5 -2h5.5h3h3h2.5h2.5q11 1 21.5 3.5t19.5 6.5q9 5 14 14t5 23q0 21 -3 36.5t-9 24.5t-21 14t-38 5l-26 2q-29 -2 -47.5 -5.5t-26.5 -11.5q-8 -7 -12 -25.5t-4 -47.5l-168 2v24v7.5v8.5v4.5v5.5q0 2 0.5 4.5t0.5 4.5q0 8 0.5 16.5t2.5 17.5
q1 8 3 16.5t5 16.5q5 17 15 30.5t25 24.5q17 13 35.5 21.5t37.5 12.5q20 5 40 7t40 3h6t7 1h6.5h6.5h6h7h6h6h2h2h2.5h2.5q48 -1 93 -8.5t85 -21.5q41 -15 61.5 -52t20.5 -97q0 -30 -5 -54.5t-16 -44.5q-10 -19 -30.5 -32t-51.5 -18v-6q32 -3 53.5 -14.5t33.5 -31.5
q11 -20 17 -45t6 -54q0 -66 -19.5 -107t-58.5 -57t-86.5 -23.5t-103.5 -7.5t-104 8t-89 24q-40 17 -60.5 59t-20.5 110v4.5v4.5v4t1 5v4v4v4.5v4.5l168 2q-1 -4 -1 -6v-4v-2v-1v-2v-2q0 -26 5.5 -43t16.5 -25q11 -7 29 -11t43 -4q27 0 48 3t34 9q14 6 21 24.5t7 48.5
q0 17 -5 28.5t-14 16.5q-10 5 -22.5 8t-29.5 3l-72 2v0z" />
    <glyph glyph-name="four" unicode="4" horiz-adv-x="640" 
d="M546 667v-406h56v-128h-56v-133h-171v133h-349v189l255 345h265v0zM375 261v268h-7l-202 -268h209v0z" />
    <glyph glyph-name="five" unicode="5" horiz-adv-x="640" 
d="M555 666v-128h-328v-128q14 16 29.5 25.5t31.5 13.5q16 3 34.5 5t39.5 2q60 0 103 -12t68 -36q26 -24 39 -66t13 -104v-20v-10.5v-9.5v-4.5v-4.5q-1 -2 -1 -4.5v-4.5q-1 -18 -3 -34.5t-7 -33.5q-4 -16 -12.5 -30.5t-20.5 -27.5q-16 -16 -34 -26.5t-39 -16.5t-42.5 -9.5
t-43.5 -4.5h-8.5t-8.5 -1h-9h-8h-8.5t-8.5 -1h-9h-8h-14.5h-15.5h-7.5h-7.5q-4 1 -7.5 1h-7.5q-24 1 -47 4.5t-45 10.5t-40.5 20.5t-33.5 32.5q-8 10 -13.5 21t-8.5 23t-4.5 25t-2.5 26q-1 3 -1 6.5v7.5v3.5v3.5q-1 1 -1 3v4v0.5v1.5v1.5v1.5l170 2q2 -20 7.5 -32t13.5 -18
t21 -8.5t30 -2.5q39 0 63 4t34 12q9 8 14 30t5 59q0 31 -5 49.5t-16 24.5q-10 6 -29.5 9t-48.5 3h-2.5h-2.5h-3h-3h-5.5h-4.5h-6h-5q-3 -1 -5.5 -1h-5.5q-5 -1 -10 -1.5t-10 -1.5q-7 -1 -11.5 -4t-7.5 -7t-4.5 -8.5t-2.5 -9.5l-155 2v373h483v0z" />
    <glyph glyph-name="six" unicode="6" horiz-adv-x="640" 
d="M601 463h-171q-1 23 -6 37.5t-14 18.5q-9 5 -24 7.5t-35 2.5l-15 2q-26 -2 -45.5 -5t-31.5 -8q-13 -6 -19 -24t-6 -48l1 -15v-97q10 23 22 38t26 20t32.5 7.5t40.5 2.5q53 0 95.5 -8t76.5 -23q34 -16 51 -54t17 -100q0 -71 -16 -117t-48 -66q-31 -20 -80.5 -29.5
t-117.5 -9.5q-73 0 -124.5 11t-83.5 35q-31 24 -46.5 75t-15.5 130v10.5v10.5v10.5t1 11.5v10v10v10.5v10.5l1 112q1 67 17 112t47 68t78 35t111 12q60 0 110.5 -8t90.5 -23q41 -15 61 -59t20 -118v2v0zM235 207q0 -16 2 -29.5t6 -24.5q5 -11 16 -16.5t30 -5.5l45 2
q1 -2 2 -2h2h2h2q24 2 40.5 5t25.5 9q9 5 13.5 21t4.5 42q0 20 -4.5 33t-13.5 17q-9 5 -21 7.5t-27 2.5l-53 2q-25 -2 -40.5 -5.5t-20.5 -10.5q-6 -7 -8.5 -19t-2.5 -30v2v0z" />
    <glyph glyph-name="seven" unicode="7" horiz-adv-x="640" 
d="M549 667v-150l-221 -517h-186l225 517h-321v150h503v0z" />
    <glyph glyph-name="eight" unicode="8" horiz-adv-x="640" 
d="M479 344v-7q31 -7 52.5 -19t33.5 -32q12 -19 18.5 -44t6.5 -54q0 -67 -19 -108.5t-57 -56.5q-37 -15 -85 -21.5t-105 -6.5q-54 0 -101.5 7t-89.5 22t-63 55.5t-21 107.5q0 29 7.5 53.5t22.5 46.5t37.5 34t53.5 14v9q-30 5 -51 17.5t-33 30.5q-13 18 -19 42t-6 54
q0 50 15 85.5t46 55.5t69 30t83 10l47 2q8 -2 16 -2h17h9.5h9.5q4 -1 9 -1h10q11 -1 21.5 -1.5t20.5 -2.5q11 -1 20 -2.5t17 -3.5q29 -9 49.5 -25t33.5 -39q14 -24 20.5 -49.5t6.5 -53.5v-5.5v-4.5q-1 -3 -1 -5.5v-5.5v-6v-5q-1 -3 -1 -5.5v-5.5q-1 -10 -4 -20.5t-6 -19.5
q-3 -10 -8 -18t-12 -15q-5 -5 -11 -9t-12 -7t-12.5 -6t-13.5 -5q-1 0 -2.5 -0.5t-2.5 -0.5l-3 -1.5t-3 -0.5q-3 -1 -5.5 -1.5t-4.5 -1.5v2v0zM219 204q0 -25 5 -40t15 -20q11 -5 24.5 -7.5t30.5 -2.5l48 2q2 -1 4.5 -1h4.5q15 0 27 2.5t21 6.5q11 5 16 19t5 38q0 16 -3 29
t-8 23t-16.5 15t-29.5 5l-61 2q-19 -2 -34.5 -4.5t-26.5 -7.5t-16.5 -20t-5.5 -41v2v0zM231 475q0 -26 4.5 -41.5t13.5 -20.5q9 -4 25.5 -7t40.5 -4h1.5h1.5h1.5h1.5q25 0 42.5 2.5t27.5 8.5q10 5 15 21t5 41q0 20 -5 32.5t-16 16.5q-10 5 -23.5 7t-29.5 2l-22 2
q-18 -2 -33 -4t-27 -6t-18 -17t-6 -35v2v0z" />
    <glyph glyph-name="nine" unicode="9" horiz-adv-x="640" 
d="M45 203h169q1 -17 4 -29.5t7 -21.5q5 -9 16.5 -14t30.5 -5l38 2q3 -1 6 -1h6q24 0 40.5 3t25.5 9q11 7 16 25t5 48v114q-9 -28 -21 -43.5t-28 -20.5q-16 -4 -36.5 -6.5t-45.5 -2.5q-57 0 -99.5 8.5t-71.5 25.5q-28 17 -42.5 57t-14.5 103q0 65 15 108t45 64t75 32t105 11
q68 0 121.5 -9t91.5 -26q38 -18 57.5 -67t19.5 -129v-87v-108q-1 -71 -15 -119.5t-41 -75.5t-76 -40t-121 -13h-47h-6h-6h-6h-6q-21 1 -41.5 3t-40.5 4q-20 4 -38 12t-35 20q-16 11 -26.5 25.5t-15.5 31.5t-8 34.5t-4 35.5q0 2 -0.5 4t-0.5 5q-1 2 -1 4v4v8.5v8.5v0.5v1.5v2
v2v2v0zM220 461v-7v-6v-6t1 -6q0 -4 1.5 -8.5t2.5 -9.5q2 -4 4.5 -8t6.5 -6q4 -3 9 -5t11 -3l12 -2t12 -1h4h4h4h4l18 2q2 -1 3.5 -1h3.5h3h3q20 0 35 2.5t25 6.5q11 5 17 21t6 43q0 21 -5 34.5t-16 18.5q-10 5 -22.5 7.5t-27.5 2.5l-35 2q-22 -2 -38.5 -5t-26.5 -9
t-14.5 -20.5t-4.5 -38.5v2v0z" />
    <glyph glyph-name="colon" unicode=":" horiz-adv-x="224" 
d="M184 153v-153h-144v153h144v0zM184 467v-153h-144v153h144v0z" />
    <glyph glyph-name="semicolon" unicode=";" horiz-adv-x="237" 
d="M187 150v-136q0 -41 -7.5 -68.5t-21.5 -42.5t-42 -22.5t-70 -7.5h-2.5h-3.5h-1.5h-1.5q-1 1 -1.5 1h-1.5v67q18 0 29.5 1.5t15.5 4.5q5 3 8 8.5t4 14.5q1 3 1.5 6.5t1.5 7.5t2 7.5t2 8.5h-55v150h144v0zM187 467v-153h-144v153h144v0z" />
    <glyph glyph-name="less" unicode="&#x3c;" horiz-adv-x="500" 
d="M466 639v-164l-258 -138l257 -138l1 -163l-433 233v138l433 232v0z" />
    <glyph glyph-name="equal" unicode="=" horiz-adv-x="500" 
d="M7 323h485v-75h-485v75v0zM7 475h485v-75h-485v75v0z" />
    <glyph glyph-name="greater" unicode="&#x3e;" horiz-adv-x="500" 
d="M34 36v165l258 137l-257 138l-1 163l433 -232v-139l-433 -232v0z" />
    <glyph glyph-name="question" unicode="?" horiz-adv-x="538" 
d="M317 153v-153h-144v153h144v0zM323 236h-153v0v2v2v2q-1 1 -1 2v2v1.5v1.5v0.5v1.5q0 29 2.5 50t7.5 36q5 14 18 27.5t32 25.5q3 2 7 4l8 4t8.5 4.5t8.5 4.5l4 2l4 2t4.5 2t4.5 2v0l1 1h0.5h0.5v0h1v0.5v0.5q12 5 23.5 12t21.5 14q11 8 16 19.5t5 27.5q0 20 -6 32.5
t-17 16.5q-11 5 -25 7t-31 2h-2.5h-2.5h-3h-3h-2.5h-3.5q-1 -1 -2.5 -1h-3.5q-5 -1 -10.5 -2.5t-10.5 -3.5q-5 -1 -9.5 -4t-7.5 -6q-4 -4 -6 -8.5t-3 -9.5t-1.5 -10.5t-0.5 -10.5v-20h-152v2.5v2.5v2v2l0.5 1t0.5 2v2v2v1v2v2v2v1v2v6.5v7.5v3.5t1 3.5v4v4q0 6 0.5 12
t1.5 13q1 6 2.5 12t3.5 12q3 12 10 23t17 20q13 12 28 20.5t32 13.5t34 9t35 5h6.5t7.5 1h6.5h7.5h6.5t7.5 1h6.5h6.5q47 0 88 -6.5t75 -19.5q35 -13 52 -47.5t17 -90.5q0 -46 -6.5 -77t-20.5 -48q-13 -16 -28 -27.5t-32 -18.5q-3 -1 -5.5 -2t-4.5 -2t-4.5 -2t-4.5 -2
q-13 -5 -25 -12t-23 -15q-10 -9 -15 -25t-5 -40v2v0z" />
    <glyph glyph-name="at" unicode="@" horiz-adv-x="771" 
d="M443 510l115 1v-195v-3v-1v0v0v-1v0q0 -10 1.5 -19t4.5 -17t10 -12t18 -4q10 0 17.5 3t13.5 9q5 6 9 13.5t6 17.5q1 5 1.5 10t1.5 10q0 5 0.5 10t1.5 10v4.5t1 4.5v4.5v5.5v10v10v49q0 51 -7.5 82.5t-22.5 43.5t-49 18t-87 6l-53 2q-19 -2 -37.5 -2.5t-37.5 -0.5
q-19 -1 -37.5 -2t-37.5 -3q-43 -4 -69.5 -18.5t-37.5 -40.5q-10 -26 -15.5 -57.5t-5.5 -68.5v-32v-20.5v-20.5v-10.5v-10.5q0 -6 0.5 -11.5t0.5 -10.5q1 -18 2.5 -35.5t3.5 -34.5q2 -16 5 -30t7 -25q6 -16 17 -27t27 -17q17 -6 34 -10t36 -6q7 -1 14 -1.5t14 -0.5h14.5h13.5
h40.5t41.5 1q11 0 21 0.5t21 0.5q10 1 20.5 2t20.5 2h3.5t2.5 1h4h4q4 0 8 1l8 2q8 2 14.5 4t13.5 6t11.5 10t6.5 13l83 -28q-4 -10 -8 -17.5t-9 -15.5q-5 -7 -11 -13.5t-13 -11.5q-13 -9 -28.5 -15t-33.5 -10t-36.5 -6.5t-37.5 -4.5q-10 -1 -20.5 -1.5t-20.5 -0.5h-19.5
h-18.5l-37 2q-54 -2 -103.5 4t-93.5 19t-69.5 52.5t-31.5 106.5q-1 17 -2.5 33.5t-2.5 32.5q-1 17 -1 34v34q0 65 8 121.5t24 102.5q16 47 62.5 73.5t124.5 32.5q17 2 34.5 2.5t35.5 1.5h18t18 1h17h18q81 0 139 -9t94 -27q35 -18 53 -72.5t18 -146.5v-30q0 -43 -6 -78
t-18 -64q-12 -28 -44.5 -42.5t-85.5 -14.5h-9.5h-10.5t-10.5 0.5t-10.5 1.5q-14 2 -27 5.5t-25 9.5t-18.5 17t-6.5 27l-4 3q-4 -20 -13.5 -33t-23.5 -20t-30 -10t-33 -3q-41 0 -66.5 10.5t-35.5 32.5t-15 50.5t-6 63.5v2v2v2v2q0 33 4 63t11 57q8 27 33 41t67 14q16 0 30 -2
t27 -7q13 -4 22.5 -14t16.5 -26l4 2v45v0zM387 433q-19 -2 -30.5 -8.5t-15.5 -18.5q-4 -13 -6 -27t-2 -30v-3v-3v-3.5v-3.5v-3v-3q0 -2 0.5 -3.5t0.5 -3.5v-12t1 -11q1 -6 2.5 -11t2.5 -10q2 -9 6.5 -14t11.5 -7q6 -1 13.5 -2t14.5 -1h0.5h1.5h0.5h1.5q20 0 32.5 4.5
t16.5 14.5q4 9 6 22.5t2 29.5v24q0 15 -2 29t-6 27q-4 12 -17 18.5t-35 6.5v2v0z" />
    <glyph glyph-name="A" unicode="A" horiz-adv-x="660" 
d="M450 115h-239l-32 -115h-186l200 667h271l203 -667h-182l-35 115v0zM415 244l-84 290l-82 -290h166v0z" />
    <glyph glyph-name="B" unicode="B" horiz-adv-x="654" 
d="M54 0v667h363q45 -2 81.5 -10.5t63.5 -25.5q27 -16 40.5 -50.5t13.5 -85.5q0 -29 -4 -54.5t-12 -46.5q-7 -21 -29.5 -34.5t-58.5 -19.5v-4q34 -5 56.5 -15.5t34.5 -28.5t18 -43.5t6 -58.5q0 -56 -11 -94t-34 -58q-22 -19 -62.5 -28.5t-99.5 -9.5h-366v0zM233 147h119
q2 -1 3.5 -1h3.5h3.5h3.5q17 0 30.5 1.5t24.5 5.5q14 5 21 19t7 39q0 23 -5.5 37t-16.5 18q-10 5 -26 7t-37 2l-131 2v-130v0zM233 400h114q2 -2 4 -2h4h2h2h1h2q16 0 29.5 2t24.5 6t17 16t6 33q0 18 -3.5 30t-9.5 19t-18 10.5t-30 3.5l-145 2v-120v0z" />
    <glyph glyph-name="C" unicode="C" horiz-adv-x="638" 
d="M442 252h177v-20q0 -32 -2.5 -61t-7.5 -56t-23 -49.5t-48 -39.5q-16 -10 -33 -16t-35 -9l-18 -2l-18 -2q-10 0 -19 -1t-18 -1h-4.5h-4.5h-4.5h-4.5h-19.5h-18.5h-9.5h-9.5q-4 1 -8.5 1h-9.5h-10h-9q-5 1 -9.5 1h-9.5h-19.5h-18.5q-66 6 -106.5 30.5t-55.5 66.5
q-16 42 -24 91.5t-9 104.5l-1 88q0 85 16.5 142.5t49.5 88.5q33 30 91.5 45.5t142.5 15.5l55 2q3 -2 6.5 -2h7.5h7.5h7.5q26 -1 51.5 -5t49.5 -12q24 -7 43 -23.5t33 -40.5q7 -12 11.5 -25t7.5 -27l2 -14t2 -13q1 -7 1.5 -14t0.5 -14v-8v-8v-4t1 -4v-3.5v-3.5v-2v-2v-1.5
v-0.5v-1.5v-1.5v-1.5v-1.5v-11h-180q0 24 -5 41t-14 27q-10 10 -27.5 15t-43.5 5l-30 2q-1 -1 -3 -1.5t-3 -0.5h-3.5h-3.5h-4h-3q-2 -1 -3.5 -1h-3.5q-8 -1 -15.5 -2.5t-15.5 -3.5q-7 -3 -13 -7t-11 -10t-8.5 -12t-5.5 -13q-1 -7 -2.5 -14t-1.5 -14v-2v-2q-1 -1 -1 -2v-2v-2
v-1v-2v-2q0 -4 -0.5 -7.5t-0.5 -6.5q-1 -4 -1 -7.5v-7.5v-7.5v-6.5q-1 -4 -1 -7.5v-6.5v-14.5v-15.5v-14v-14v-4.5v-4.5v-4v-4v-5v-4v-4.5v-4.5q0 -37 5.5 -61.5t15.5 -38.5q11 -13 34 -20t60 -7q26 0 46.5 3.5t35.5 10.5q15 8 23 26t8 47v2v2v2v2q-1 1 -1 2v2v2v2v2v0z" />
    <glyph glyph-name="D" unicode="D" horiz-adv-x="693" 
d="M54 0v667h349q63 -2 111 -17t81 -44q33 -30 50 -77.5t17 -112.5l-1 -77q0 -68 -8 -127.5t-24 -110.5t-66.5 -76t-135.5 -25h-373v0zM233 153h145q1 -1 1.5 -1h1.5h0.5h1.5q23 0 39.5 6.5t27.5 19.5q12 14 18.5 32.5t7.5 41.5v6t1 7v6.5v6.5q0 7 0.5 13.5t1.5 13.5v12.5
v13.5v13.5v13.5v10v11v6v6q-1 2 -1 5v6q-1 11 -2 21.5t-3 20.5t-5 18t-7 15q-6 9 -13.5 15t-16.5 9t-18.5 5t-19.5 3h-4h-4h-2h-1h-2h-2l-145 2v-358v0z" />
    <glyph glyph-name="E" unicode="E" horiz-adv-x="580" 
d="M233 520v-120h284v-124h-284v-129h310v-147h-489v667h483v-147h-304v0z" />
    <glyph glyph-name="F" unicode="F" horiz-adv-x="547" 
d="M233 520v-130h271v-147h-271v-243h-179v667h473v-147h-294v0z" />
    <glyph glyph-name="G" unicode="G" horiz-adv-x="674" 
d="M342 377h301l1 -20l2 -107q0 -49 -7.5 -91t-21.5 -78q-15 -37 -50.5 -57t-92.5 -24q-16 -1 -31.5 -1.5t-31.5 -1.5h-16t-16 -1h-16h-16q-78 0 -136.5 11t-98.5 34t-59.5 78.5t-19.5 143.5v10.5v11.5v12t1 12v10.5v11.5v6v6v5v6v4.5v5.5v3v3v2.5v2.5v14v14v7.5t1 7.5v6.5
v7.5q1 22 4 43.5t8 43.5q5 21 15.5 40.5t26.5 37.5q17 20 38 33t45 20q24 8 49.5 12.5t50.5 5.5h10t10 1h9h10h10t10 1h9h10q65 0 117.5 -7t91.5 -21t60 -60t24 -124l-180 2q-4 19 -11 31.5t-18 18.5q-10 5 -25.5 8t-35.5 3l-30 2q-4 -2 -7.5 -2h-6.5h-3h-3q-2 -1 -3.5 -1
h-3.5q-10 -1 -19 -2t-18 -3t-17 -6t-15 -10q-9 -7 -14.5 -15t-8.5 -19q-3 -10 -5 -20.5t-2 -21.5v-6v-6v-6v-6v-7.5v-6.5v-3v-3v-3.5v-3.5q-1 -4 -1 -7.5v-6.5v-3v-3v-3.5v-3.5v-26.5v-27.5q0 -13 1 -26.5t2 -27.5q2 -33 11 -52.5t24 -27.5q15 -7 37 -11t51 -4t51.5 4
t39.5 11q17 8 25.5 27.5t8.5 51.5v18h-125v123v0z" />
    <glyph glyph-name="H" unicode="H" horiz-adv-x="698" 
d="M644 667v-667h-179v262h-232v-262h-179v667h179v-252h232v252h179v0z" />
    <glyph glyph-name="I" unicode="I" horiz-adv-x="287" 
d="M233 667v-667h-179v667h179v0z" />
    <glyph glyph-name="J" unicode="J" horiz-adv-x="533" 
d="M494 667v-451q-2 -59 -11.5 -101.5t-26.5 -68.5q-16 -26 -58 -38.5t-110 -12.5q-66 0 -114 7t-80 23q-31 16 -47 61.5t-16 120.5v4v5v4v4v9.5t1 8.5v4v5v4v4v9.5v8.5l166 2v-68q0 -17 2.5 -29t6.5 -20q5 -8 17 -12t33 -4q20 0 32 4.5t16 13.5t6 22.5t3 30.5v18v432h180v0
z" />
    <glyph glyph-name="K" unicode="K" horiz-adv-x="687" 
d="M233 667v-253h54l172 253h215l-235 -328l254 -339h-220l-186 263h-54v-263h-179v667h179v0z" />
    <glyph glyph-name="L" unicode="L" horiz-adv-x="521" 
d="M233 667v-514h280v-153h-459v667h179v0z" />
    <glyph glyph-name="M" unicode="M" horiz-adv-x="933" 
d="M879 667v-667h-176l13 511h-5l-166 -511h-154l-170 511h-6l15 -511h-176v667h282l127 -419h7l120 419h289v0z" />
    <glyph glyph-name="N" unicode="N" horiz-adv-x="774" 
d="M720 667v-667h-303l-188 513h-8l8 -513h-175v667h301l188 -507h7l-7 507h177v0z" />
    <glyph glyph-name="O" unicode="O" horiz-adv-x="682" 
d="M33 329v18v20v10v11q0 5 0.5 10t0.5 10q0 10 1 20l2 20q0 5 0.5 10t1.5 11q1 5 1.5 10t1.5 10q9 56 34.5 92.5t67.5 52.5q41 17 86 25.5t93 9.5h4.5h5.5h4.5h5.5q86 0 147 -15t95 -44q35 -29 52 -89t17 -150q0 -93 -10.5 -163t-30.5 -118t-86 -71.5t-179 -23.5h-8h-8
q-5 1 -9 1h-8h-8.5h-8.5q-5 1 -9 1h-8q-38 1 -74 8.5t-69 21.5q-34 14 -56.5 42t-34.5 70q-5 17 -8 34t-4 35q-1 17 -1.5 34.5t-0.5 35.5v51v0zM216 332v-40q0 -37 4 -64t11 -45q8 -19 32 -28t66 -9q46 0 75 7t41 22t18.5 43.5t6.5 71.5v12v12v12t1 13v12v12v12v12
q0 33 -5 57.5t-14 40.5q-10 15 -32.5 23t-58.5 8q-52 0 -83 -7t-41 -21t-15 -52.5t-6 -101.5v-1.5v-0.5v-1.5v-0.5v2v0z" />
    <glyph glyph-name="P" unicode="P" horiz-adv-x="636" 
d="M54 0v667h261q74 -2 130.5 -11.5t95.5 -27.5q39 -19 58.5 -71.5t19.5 -138.5v-7.5v-6.5v-7.5v-7.5v-7.5v-6.5q-1 -4 -1 -7.5v-6.5q-1 -15 -2.5 -29t-4.5 -28t-7.5 -27.5t-11.5 -26.5q-12 -23 -29 -38.5t-40 -23.5q-22 -7 -46 -11.5t-49 -6.5h-6.5h-6.5q-4 -1 -7.5 -1
h-6.5h-13.5h-12.5h-1.5h-0.5v0v0h-1v0h-8h-8h-8h-8l-107 2v-171h-179v0zM233 325h112q28 0 46 3.5t27 10.5q8 6 12.5 22.5t4.5 42.5v10q0 28 -3.5 48t-9.5 32t-24.5 18t-50.5 6l-114 2v-195v0z" />
    <glyph glyph-name="Q" unicode="Q" horiz-adv-x="681" 
d="M713 97l-73 -100l-65 52q-14 -14 -30.5 -23.5t-35.5 -14.5q-19 -6 -37.5 -9t-38.5 -4q-12 -1 -23.5 -1.5t-22.5 -0.5h-11.5t-10.5 -1h-10.5h-10.5q-78 0 -136.5 12.5t-96.5 37.5q-39 26 -58 82t-19 141v18v18v18v19v18v18v9.5t1 8.5v9.5v8.5q0 80 20.5 132t62.5 76
q41 24 97.5 36t126.5 12h15.5h15.5q7 -1 15 -1h15q15 0 30.5 -0.5t31.5 -2.5q29 -3 56.5 -14.5t52.5 -31.5t41.5 -45t23.5 -54q2 -6 3 -12l2 -12q1 -7 2 -13l2 -12t1.5 -12t1.5 -12q0 -7 0.5 -13t1.5 -12v-10t1 -10v-10v-10v-20v-19v-18v-17q-1 -9 -1 -17.5v-17.5
q0 -17 -0.5 -34.5t-1.5 -34.5q-1 -8 -1.5 -15.5t-2.5 -15.5q-1 -7 -3 -14.5t-4 -14.5l73 -47v0zM375 336l93 -68q1 4 1.5 9t0.5 10v10.5v11.5v6.5t1 7.5v6.5v7.5v7.5t1 7.5v6.5v7.5q0 34 -3.5 61t-10.5 48q-7 20 -30.5 30.5t-62.5 10.5l-23 2q-38 -2 -63 -8.5t-37 -18.5
q-12 -13 -18 -37.5t-6 -60.5v-108q0 -42 5.5 -69.5t15.5 -41.5q11 -14 37.5 -21t69.5 -7h8h8h4h5q2 0 4 0.5t4 0.5h6t6 1q2 0 5 0.5t6 1.5q5 1 10.5 2.5t10.5 3.5l-118 80l70 100v0z" />
    <glyph glyph-name="R" unicode="R" horiz-adv-x="665" 
d="M54 0v667h336q64 -2 109.5 -13t73.5 -32q27 -21 41 -65t14 -111q0 -37 -4.5 -68t-12.5 -54t-35 -39.5t-74 -26.5v-5q31 -3 53.5 -12.5t37.5 -26.5q15 -16 22.5 -40t7.5 -54v-120h-182v89q0 19 -4 34.5t-12 27.5q-7 12 -22 18t-37 6l-133 2v-177h-179v0zM233 329h142
q2 -1 3.5 -1h3.5q21 0 34 5.5t18 16.5t8 27.5t3 38.5q0 24 -3 42t-8 30q-6 11 -22.5 17t-45.5 6l-133 2v-184v0z" />
    <glyph glyph-name="S" unicode="S" horiz-adv-x="637" 
d="M585 459h-170q0 24 -5 39.5t-15 22.5q-10 6 -27 9.5t-41 3.5l-18 2q-1 -2 -2 -2h-2h-2h-2q-16 0 -31.5 -2.5t-29.5 -7.5q-14 -4 -21 -17t-7 -34q0 -16 2.5 -27t8.5 -19q6 -7 17 -11.5t27 -5.5q8 -1 15.5 -1.5t15.5 -0.5q8 -1 16 -1.5t16 -0.5h2h2h2.5h2.5q50 -2 96 -9.5
t87 -20.5t62 -54t21 -109v-7.5v-6.5v-7.5v-7.5v-7.5t-1 -6.5q0 -4 -0.5 -7.5t-0.5 -7.5q-1 -16 -4 -31t-8 -30q-4 -15 -12.5 -27.5t-20.5 -22.5q-16 -13 -34 -22.5t-38 -14.5q-20 -4 -40.5 -6.5t-41.5 -3.5h-6t-6 -1h-6h-6h-6h-5h-6h-6h-44q-69 0 -121.5 7t-87.5 22
q-36 15 -53.5 62.5t-17.5 126.5l170 2q0 -20 3 -35t10 -26q6 -10 20 -15.5t35 -5.5l77 2q2 -1 4.5 -1h4.5q14 0 26 2.5t22 6.5q12 5 18 19.5t6 36.5q0 21 -5.5 34t-16.5 17q-10 5 -24.5 7.5t-31.5 3.5h-2h-2h-1.5h-1.5q-9 0 -17 0.5t-16 1.5q-7 0 -14.5 0.5t-15.5 1.5
q-58 3 -103.5 12t-78.5 24t-49 59.5t-16 117.5q0 44 9.5 77t28.5 56t50.5 36t76.5 17q14 1 28.5 1.5t29.5 1.5q8 0 15 0.5t15 0.5q7 1 14.5 1h14.5q58 0 106 -6.5t87 -18.5q38 -13 57.5 -54.5t19.5 -112.5v-2.5v-3.5v-2v-2q-1 -1 -1 -2.5v-3.5v-1.5v-0.5v-1.5v-1.5v2v0z" />
    <glyph glyph-name="T" unicode="T" horiz-adv-x="543" 
d="M356 513v-513h-179v513h-169v154h528v-154h-180v0z" />
    <glyph glyph-name="U" unicode="U" horiz-adv-x="688" 
d="M455 667h179v-421v-7.5v-6.5q-1 -3 -1 -6v-6v-6v-6q-1 -3 -1 -5.5v-5.5q-1 -2 -1 -4v-4v-2v-2q-1 -1 -1 -2v-2v-4v-4q-1 -2 -1 -4v-4v-4v-4q-1 -2 -1 -4v-4q-7 -50 -29.5 -81.5t-59.5 -45.5q-37 -13 -77 -19.5t-83 -6.5h-24q-72 0 -128 7.5t-95 23.5q-39 17 -58.5 67.5
t-19.5 135.5v437h179v-435q0 -31 7 -49t20 -24q14 -6 34 -9t45 -3q32 0 54 3t35 10q14 6 20.5 26t6.5 54v427v0z" />
    <glyph glyph-name="V" unicode="V" horiz-adv-x="658" 
d="M475 667h185l-195 -667h-277l-189 667h181l144 -514h5l146 514v0z" />
    <glyph glyph-name="W" unicode="W" horiz-adv-x="994" 
d="M996 667l-149 -667h-257l-90 418h-7l-97 -418h-254l-143 667h179l96 -514h7l125 514h184l120 -514h6l101 514h179v0z" />
    <glyph glyph-name="X" unicode="X" horiz-adv-x="677" 
d="M664 667l-184 -324l198 -343h-207l-132 256l-132 -256h-209l200 343l-187 324h207l121 -245l121 245h204v0z" />
    <glyph glyph-name="Y" unicode="Y" horiz-adv-x="655" 
d="M656 667l-243 -436v-231h-179v231l-236 436h204l119 -257h6l123 257h206v0z" />
    <glyph glyph-name="Z" unicode="Z" horiz-adv-x="586" 
d="M565 667v-150l-319 -361v-6h319v-150h-545v151l314 360v6h-294v150h525v0z" />
    <glyph glyph-name="bracketleft" unicode="[" horiz-adv-x="342" 
d="M53 667h240v-134h-73v-511h73v-133h-240v778v0z" />
    <glyph glyph-name="backslash" unicode="\" horiz-adv-x="567" 
d="M54 667h112l394 -778h-113l-393 778v0z" />
    <glyph glyph-name="bracketright" unicode="]" horiz-adv-x="342" 
d="M289 -111h-240v133h73v511h-73v134h240v-778v0z" />
    <glyph glyph-name="asciicircum" unicode="^" horiz-adv-x="500" 
d="M158 345h-146l147 326h183l147 -326h-146l-92 214l-93 -214v0z" />
    <glyph glyph-name="underscore" unicode="_" horiz-adv-x="500" 
d="M0 -54h500v-97h-500v97v0z" />
    <glyph glyph-name="grave" unicode="`" horiz-adv-x="500" 
d="M182 661l181 -107l-25 -55l-201 64l45 98v0z" />
    <glyph glyph-name="a" unicode="a" horiz-adv-x="536" 
d="M209 328h-154q0 50 15 80.5t45 40.5t66.5 15t78.5 5q49 0 90 -6.5t74 -18.5q33 -13 50 -49t17 -95v-300h-152l6 69h-6q-3 -20 -12 -33t-23 -21q-14 -7 -29.5 -11.5t-32.5 -5.5q-3 0 -6 -0.5t-6 -0.5q-4 -1 -7 -1h-6h-6t-6 -1h-5.5h-5.5q-35 0 -63.5 7t-50.5 22t-33 41.5
t-11 64.5q0 47 12 77t36 45t56.5 22.5t73.5 7.5h4h4h4.5h4.5q15 -1 30 -3t29 -7q14 -4 25 -14.5t18 -26.5l6 2v85q0 16 -4 27.5t-12 17.5q-7 6 -20 9.5t-30 3.5q-16 0 -28 -2t-20 -7q-7 -4 -11 -14.5t-5 -26.5v2v0zM189 144q0 -20 5.5 -31.5t17.5 -14.5q11 -3 24 -4.5
t28 -1.5q14 0 27 2t25 6q11 5 17 15.5t6 27.5v1.5v1.5v1.5v1.5q0 4 -0.5 7.5t-1.5 7.5q-1 3 -3 6t-5 6q-4 3 -9 5.5t-10 3.5q-5 2 -10.5 2.5t-11.5 1.5h-4t-4 1h-5h-4h-8h-7q-14 0 -26 -2t-22 -6t-14.5 -14t-4.5 -26v2v0z" />
    <glyph glyph-name="b" unicode="b" horiz-adv-x="547" 
d="M50 0v666h152v-266h8q10 19 22.5 33t28.5 21q15 8 34.5 11.5t41.5 3.5q49 0 83.5 -11t55.5 -34q20 -22 30.5 -58t10.5 -84v-6v-6v-5.5v-4.5q0 -1 -0.5 -2.5t-0.5 -2.5v-3v-3v-5.5v-4.5v-4v-4v-2v-1v-2v-2q-1 -49 -7.5 -90t-17.5 -74q-12 -33 -49.5 -49t-102.5 -16
q-26 0 -47.5 3.5t-38.5 11.5t-30 25t-21 43l-6 2l6 -80h-152v0zM203 239v-3.5v-3.5v-2.5v-2.5v-2v-1v-1.5t1 -0.5v-4v-4v-3.5v-3.5q0 -21 3 -38.5t9 -31.5q5 -14 22 -21t45 -7q24 0 40.5 5.5t23.5 16.5q8 11 12 28t4 39v41q0 21 -2.5 40.5t-7.5 37.5q-4 17 -20 26t-42 9
q-23 0 -39.5 -3.5t-27.5 -11.5q-10 -7 -15.5 -28.5t-5.5 -56.5v-13v0z" />
    <glyph glyph-name="c" unicode="c" horiz-adv-x="496" 
d="M332 186h148q0 -53 -9.5 -89.5t-28.5 -58.5t-56 -32.5t-91 -10.5q-64 0 -112.5 8t-81.5 26t-49.5 63t-16.5 118q0 64 9.5 112t28.5 81t64 49.5t115 16.5q53 0 95 -7t72 -21q30 -13 45.5 -51t15.5 -100l-147 2q0 17 -3.5 29.5t-10.5 19.5t-20.5 10.5t-33.5 3.5
q-27 0 -43.5 -6.5t-22.5 -18.5t-9 -30.5t-3 -44.5v-49q0 -25 2.5 -43t7.5 -30q5 -13 21.5 -19t43.5 -6q23 0 37.5 4t20.5 13t9 23.5t3 35.5v2v0z" />
    <glyph glyph-name="d" unicode="d" horiz-adv-x="541" 
d="M494 666v-666h-147l5 81h-5q-7 -28 -20 -45.5t-31 -25.5t-39 -11.5t-46 -3.5q-32 0 -60.5 6t-54.5 19q-25 14 -40 38.5t-18 61.5q-1 8 -1.5 16.5t-0.5 17.5q-1 8 -1 16.5v17.5q-1 8 -1 16.5v17.5v16.5v17.5q0 50 8 89t24 67q17 29 53 43t91 14q22 0 41 -3.5t35 -10.5
q17 -7 29.5 -21.5t21.5 -35.5l5 2v266h152v0zM187 244v-28q0 -26 2.5 -45.5t7.5 -34.5t22 -22.5t46 -7.5q24 0 40.5 5.5t23.5 17.5q8 12 12 29.5t4 40.5v3.5v2.5v3.5v2.5v1.5v1.5v1.5v1.5q-1 2 -1 4.5v4.5v4.5v4.5q0 26 -3 48t-8 38q-6 17 -24.5 25t-50.5 8q-26 0 -41.5 -9
t-20.5 -26q-4 -18 -6.5 -37t-2.5 -40v2v0z" />
    <glyph glyph-name="e" unicode="e" horiz-adv-x="510" 
d="M335 156h148q0 -56 -14 -90t-43 -47q-28 -13 -66.5 -18.5t-86.5 -5.5q-68 0 -115 11t-73 34q-25 23 -38 69t-13 115q0 66 10 113.5t31 75.5t66 42t115 14q59 0 102.5 -10.5t70.5 -30.5t40.5 -62t13.5 -106v-53h-299q0 -28 2.5 -47.5t8.5 -33.5q6 -13 24 -20t49 -7
q16 0 28 2.5t21 7.5q8 5 12.5 16.5t5.5 28.5v2v0zM337 291q0 17 -4 30.5t-12 22.5q-8 8 -21.5 12.5t-33.5 4.5l-8 2q-25 -2 -40 -6.5t-21 -13.5t-8.5 -22.5t-2.5 -31.5l151 2v0z" />
    <glyph glyph-name="f" unicode="f" horiz-adv-x="350" 
d="M336 467v-110h-106v-357h-152v357h-61v110h61v41v7.5v8.5v10t1 10q0 5 1 9.5t1 9.5q1 4 2.5 9t2.5 9q2 9 6 17.5t10 15.5q11 13 24.5 22.5t29.5 15.5q17 6 34 10t35 6q11 2 21.5 2.5t20.5 0.5h10t10 1h10h9l23 2v-114q-2 -1 -4 -1t-4 1q-2 0 -3.5 0.5t-3.5 1.5h-4h-4h-2
t-2 1h-2h-2q-21 0 -34.5 -4t-20.5 -12q-7 -7 -10 -21t-3 -34v-25h106v0z" />
    <glyph glyph-name="g" unicode="g" horiz-adv-x="545" 
d="M494 467v-457q0 -68 -14 -112t-43 -65q-28 -20 -75 -30.5t-112 -10.5h-8h-7q-4 1 -8 1h-8h-8h-8q-4 1 -8 1h-8q-21 2 -40.5 7t-37.5 13q-19 7 -31.5 20.5t-20.5 33.5q-1 4 -2.5 7.5t-2.5 6.5q-1 4 -1.5 7.5t-1.5 7.5t-1.5 8t-0.5 7v8v8v2v2q-1 2 -1 3v2v4v4v2v1v2v2v2.5
v3.5h145q0 -19 4.5 -30.5t14.5 -15.5q9 -5 22.5 -7t29.5 -2q19 0 34 3t25 9q11 6 16 19.5t5 34.5v107h-7q-7 -21 -19 -35.5t-28 -23.5t-34.5 -13t-38.5 -4q-36 0 -66 6.5t-55 21.5t-39.5 42t-19.5 66q-1 14 -2.5 27.5t-1.5 26.5q-1 14 -1 28v28q0 49 7 89t22 71
q15 32 51 47.5t93 15.5q27 0 49 -4.5t38 -12.5q17 -9 29.5 -26.5t22.5 -43.5l7 2l-7 83h152v0zM183 243v-38q0 -21 3 -37t9 -28t22.5 -18t43.5 -6q28 0 44.5 7t22.5 20q6 14 9 30.5t3 37.5v40q0 23 -3 42t-8 32q-6 14 -23.5 21t-46.5 7q-26 0 -42 -4.5t-22 -12.5
q-6 -9 -9 -25t-3 -40v-28v0z" />
    <glyph glyph-name="h" unicode="h" horiz-adv-x="546" 
d="M203 667v-287h6q9 25 21.5 42t27.5 27t36.5 15t49.5 5q35 0 63 -8t49 -24t32 -42t11 -64v-331h-152v277q0 16 -3 30t-8 24t-18.5 15t-34.5 5t-36.5 -6t-24.5 -17q-10 -11 -14.5 -27t-4.5 -36v-265h-152v667h152v0z" />
    <glyph glyph-name="i" unicode="i" horiz-adv-x="253" 
d="M202 467v-467h-152v467h152v0zM202 667v-114h-152v114h152v0z" />
    <glyph glyph-name="j" unicode="j" horiz-adv-x="253" 
d="M202 466v-466q0 -36 -9 -63t-26 -45t-44 -27.5t-64 -9.5h-3h-3q-2 1 -3.5 1h-3.5h-3h-3h-3.5h-3.5q-4 1 -7.5 1.5t-6.5 0.5q-3 1 -6 1.5t-6 0.5v106h0.5t1.5 -1h0.5h0.5h1.5h1.5q11 0 18.5 4t11.5 12q3 7 5 15t2 18v452h152v0zM202 666v-113h-150v113h150v0z" />
    <glyph glyph-name="k" unicode="k" horiz-adv-x="527" 
d="M203 667v-376h27l92 176h168l-132 -224l162 -243h-178l-112 191h-27v-191h-152v667h152v0z" />
    <glyph glyph-name="l" unicode="l" horiz-adv-x="253" 
d="M202 667v-667h-152v667h152v0z" />
    <glyph glyph-name="m" unicode="m" horiz-adv-x="815" 
d="M51 467h148v-66h4q7 17 19 30t28 20q17 8 35 12.5t37 5.5h3.5h2.5h3.5h2.5q26 0 48.5 -3.5t43.5 -10.5q20 -7 31 -26t12 -50l7 2q4 25 16 42.5t32 26.5t41.5 14t45.5 5q42 0 72 -9.5t48 -29.5q18 -19 27.5 -49t9.5 -71v-310h-152v262q0 17 -2 32.5t-6 28.5t-17.5 19.5
t-36.5 6.5q-19 0 -32.5 -5t-21.5 -16q-8 -10 -12 -24t-4 -31v-273h-152v275q0 16 -2 29.5t-5 23.5q-4 11 -16 16t-32 5q-19 0 -33 -4t-23 -12t-13.5 -23t-4.5 -37v-273h-152v467v0z" />
    <glyph glyph-name="n" unicode="n" horiz-adv-x="544" 
d="M51 467h146v-85h6q8 22 20.5 39t28.5 27q17 11 37 16t45 5q36 0 66 -8t52 -23q23 -16 34 -43.5t11 -67.5v-327h-152v274q0 13 -2.5 26.5t-7.5 25.5q-4 12 -15.5 18.5t-29.5 6.5q-19 0 -35 -5t-28 -14t-18 -24t-6 -36v-272h-152v467v0z" />
    <glyph glyph-name="o" unicode="o" horiz-adv-x="527" 
d="M38 258q0 61 11.5 103t35.5 64t67 33t105 11q64 0 110.5 -9t76.5 -26q30 -18 45 -62.5t15 -115.5q0 -67 -8 -116.5t-23 -81.5t-62 -47.5t-127 -15.5q-62 0 -108.5 8.5t-76.5 26.5q-31 18 -46 61.5t-15 113.5v53v0zM191 234v-23q0 -25 3 -44t10 -33t24 -21t45 -7
q23 0 39 5.5t23 17.5q8 11 11.5 28t4.5 39v8v8v4v5q0 2 0.5 4t0.5 4v8v8v4v5v4v4q0 24 -3.5 42t-10.5 29t-23.5 17t-42.5 6q-28 0 -45.5 -7.5t-23.5 -21.5q-6 -15 -9 -35t-3 -46v-12v0z" />
    <glyph glyph-name="p" unicode="p" horiz-adv-x="555" 
d="M50 466h152v-71h5q2 1 3.5 3.5t2.5 5.5q1 2 2 3l2 2q0 2 1 3l2 2q11 17 23 28t25 16q14 5 32 8t42 3q58 0 95.5 -14t53.5 -43q17 -28 25 -68.5t8 -92.5t-5.5 -97.5t-16.5 -83.5t-50 -56.5t-106 -18.5q-23 0 -43.5 3t-38.5 9q-18 7 -30.5 22.5t-20.5 40.5l-6 2v-265h-157
v659v0zM207 243v-21q0 -25 3 -45t9 -36t24.5 -23.5t49.5 -7.5q27 0 43.5 7t22.5 22q6 14 9 33t3 42v28v7.5v9.5v4.5v5.5q-1 2 -1 4.5v5.5q-1 8 -1.5 16.5t-2.5 15.5q-1 8 -4 14.5t-6 10.5q-4 5 -8.5 8t-9.5 5q-6 2 -12 3.5t-12 2.5h-2t-2 1h-3h-2h-4h-4q-25 0 -42 -4.5
t-28 -12.5q-10 -8 -15 -28.5t-5 -53.5v-14v0z" />
    <glyph glyph-name="q" unicode="q" horiz-adv-x="547" 
d="M498 466v-661h-152v266h-7q-7 -25 -19 -40t-30 -23q-18 -7 -38 -10t-42 -3q-38 0 -68 7t-53 23q-22 15 -35 43.5t-17 69.5q-1 14 -2 28.5t-2 28.5t-1 28.5v28.5q0 50 8 90t24 69q17 29 53 43.5t92 14.5q25 0 45 -3.5t36 -10.5q15 -7 28 -23t23 -40l5 2v72h152v0zM185 241
v-25q0 -25 2.5 -44t8.5 -34t22.5 -22t44.5 -7q29 0 46.5 7t23.5 22q5 14 8 32.5t3 40.5v29v7.5v8.5v4.5v5.5q-1 2 -1 4.5v5.5q-1 8 -2 16.5t-3 16.5q-1 8 -4 14.5t-6 11.5q-4 5 -8.5 8t-9.5 5q-6 2 -11.5 3t-10.5 2h-3t-3 1h-3.5h-3.5h-6h-5q-21 0 -36 -3.5t-24 -10.5
q-10 -7 -14.5 -25.5t-4.5 -48.5v-25v0z" />
    <glyph glyph-name="r" unicode="r" horiz-adv-x="445" 
d="M51 467h147l-2 -69h7q9 17 20 30.5t24 22.5t30 13.5t39 4.5q43 0 68.5 -12.5t33.5 -38.5q8 -25 12.5 -53t5.5 -60v-2.5v-3.5v-1.5v-0.5v-1.5v-1.5v-4t1 -4v-5v-4v-8t1 -8l-139 2q0 -1 0 -0.5t1 1.5v1.5v1.5v3.5v2.5v2v2v1v2v4v4v2v2v3.5v2.5q-1 11 -3 20t-6 18t-12 13.5
t-22 4.5t-24 -5t-15 -14q-6 -10 -9 -20.5t-5 -21.5v-3v-3q-1 -2 -1 -3.5v-3.5v-6v-6v-268h-152v467v0z" />
    <glyph glyph-name="s" unicode="s" horiz-adv-x="514" 
d="M464 333h-144v-1v0h-1v0v0.5v1.5v0v1q-1 0 -1 0.5v0.5v0.5v1.5q-3 11 -7.5 18t-12.5 10q-7 2 -16 3.5t-18 1.5l-28 2q-10 -2 -20 -3.5t-18 -3.5q-9 -2 -13.5 -9.5t-6.5 -20.5q0 -16 8.5 -26.5t24.5 -13.5q17 -3 37 -5t43 -2q5 -1 10 -1h10h4.5h5.5q2 -1 5 -1h6
q29 -1 55 -8t50 -18q24 -12 36 -38t12 -67q0 -54 -18 -87.5t-53 -47.5q-35 -13 -75 -19.5t-84 -6.5q-46 0 -85.5 4.5t-73.5 14.5q-34 11 -50.5 43t-16.5 87l155 2q0 -18 3.5 -29t10.5 -16q7 -4 18 -6.5t26 -2.5l32 2q2 -1 4.5 -1h4.5q9 0 17.5 1.5t16.5 3.5q10 3 15 11.5
t5 23.5q0 16 -5 25.5t-15 12.5t-21 5t-24 3l-31 2q-43 -2 -80 3.5t-68 15.5q-31 11 -46.5 42.5t-15.5 83.5q0 51 16.5 82t50.5 41q33 10 70.5 15t78.5 5h8.5h8.5q5 -1 10 -1h10q10 0 20 -0.5t20 -1.5q26 -3 50.5 -10t46.5 -19t33 -33t11 -52v-2.5v-3.5v-2v-2q-1 -1 -1 -2.5
v-3.5v-1.5v-0.5v-1.5v-1.5v2v0z" />
    <glyph glyph-name="t" unicode="t" horiz-adv-x="431" 
d="M398 467v-110h-177v-189v-3.5v-2.5v-2t1 -2v-2.5v-3.5v-2.5v-3.5q0 -8 1.5 -15.5t4.5 -13.5q3 -7 9.5 -10t16.5 -3q14 0 22 3.5t12 10.5q3 7 5 16.5t3 21.5v4v4v4.5t1 4.5v4v4v4.5v4.5l122 2v-7v-6v-2.5t1 -2.5v-3v-2v-2.5v-2.5v-3v-3v-2.5t1 -2.5v-3v-2q0 -43 -9.5 -73
t-29.5 -47q-19 -16 -52.5 -24t-81.5 -8q-40 0 -72 5.5t-57 17.5t-37.5 41.5t-12.5 75.5v221h-57v110h57v98h152v-98h177v0z" />
    <glyph glyph-name="u" unicode="u" horiz-adv-x="545" 
d="M494 467v-467h-150l5 89h-7q-8 -26 -21 -44.5t-31 -29.5q-18 -10 -39.5 -15t-47.5 -5q-39 0 -68 9t-49 28q-19 20 -29 49t-10 68v318h152v-267q0 -19 2.5 -34t8.5 -28q5 -13 18 -19.5t33 -6.5t35 5.5t25 17.5q11 11 16 26.5t5 34.5v26v245h152v0z" />
    <glyph glyph-name="v" unicode="v" horiz-adv-x="471" 
d="M477 467l-114 -467h-241l-128 467h160l84 -366h5l76 366h158v0z" />
    <glyph glyph-name="w" unicode="w" horiz-adv-x="745" 
d="M744 467l-81 -467h-220l-66 333h-5l-64 -333h-222l-85 467h147l52 -361h7l77 361h178l77 -361h8l53 361h144v0z" />
    <glyph glyph-name="x" unicode="x" horiz-adv-x="487" 
d="M479 467l-123 -220l135 -247h-179l-67 154l-65 -154h-184l139 247l-121 220h178l53 -129l56 129h178v0z" />
    <glyph glyph-name="y" unicode="y" horiz-adv-x="474" 
d="M480 467l-115 -498q-9 -43 -24 -76t-36 -55q-22 -23 -55.5 -34t-80.5 -11h-7.5h-7.5q-4 1 -7.5 1h-7.5q-7 0 -14.5 0.5t-15.5 1.5v104h1.5h1.5h0.5t1.5 -1h0.5h0.5h1.5h1.5h0.5t1.5 -1h0.5h0.5q27 0 45 6.5t27 19.5t14.5 32t8.5 44h-84l-138 467h160l93 -379l77 379h156
v0z" />
    <glyph glyph-name="z" unicode="z" horiz-adv-x="441" 
d="M36 467h386v-121l-226 -237h226v-109h-403v126l220 233h-203v108v0z" />
    <glyph glyph-name="braceleft" unicode="{" horiz-adv-x="500" 
d="M248 241q18 -13 30 -26.5t17 -27.5q5 -15 8 -32.5t3 -38.5v-86q2 -27 7 -43t13 -22t24.5 -9t40.5 -3h13v-144h-13.5t-13.5 -1h-13.5h-13.5h-13.5t-13.5 -1h-13.5h-13.5q-38 0 -66.5 8t-48.5 25q-19 16 -28.5 44t-9.5 69v137q0 13 -3 27t-8 27t-16.5 21t-28.5 12v135
q16 2 27 9.5t17 17.5q6 11 9 23.5t3 28.5v143q0 38 10 65.5t30 43.5t49 24t66 8h12.5h13.5h6.5h7.5q3 -1 6.5 -1h6.5h6h7q3 -1 6.5 -1h6.5h6.5h7.5q3 -1 6.5 -1h6.5v-150h-13q-3 -2 -5.5 -2h-4.5h-5.5h-4.5q-6 -1 -11 -1.5t-10 -1.5t-9.5 -2t-9.5 -3q-7 -3 -12 -8t-7 -11
q-2 -7 -3.5 -13.5t-1.5 -13.5v-2.5v-3.5v-1.5v-0.5v-1.5v-1.5v-1.5v-1.5q-1 -1 -1 -1.5v-1.5v-1.5v-0.5v-1.5v-1.5v-80q0 -22 -2 -39t-7 -30q-4 -13 -14.5 -25.5t-25.5 -23.5l-1.5 -1.5l-0.5 -0.5l-1.5 -1.5t-1.5 -0.5q-1 -1 -2 -1.5t-2 -1.5v2v0z" />
    <glyph glyph-name="bar" unicode="|" horiz-adv-x="500" 
d="M167 666h167v-833h-167v833v0z" />
    <glyph glyph-name="braceright" unicode="}" horiz-adv-x="500" 
d="M252 242q-19 10 -31 22.5t-17 27.5t-7.5 33t-2.5 39v90q0 23 -5 38.5t-14 22.5q-10 7 -26 10.5t-39 3.5l-14 2v144q14 -1 27.5 -1h26.5h13.5t13.5 1h13.5h13.5q38 0 67 -8t48 -25q20 -16 29.5 -44t9.5 -69v-135q0 -18 2.5 -32.5t7.5 -26.5t16.5 -20t28.5 -12v-131
q-16 -5 -26.5 -12t-16.5 -18q-6 -10 -9 -23.5t-3 -29.5v-140q0 -39 -10 -66.5t-30 -43.5t-48.5 -24t-66.5 -8h-13.5h-13.5h-6.5h-6.5q-4 1 -7 1h-6h-7.5h-6.5q-4 1 -7 1h-6h-6.5h-6.5q-4 1 -7.5 1h-6.5v152q19 0 36 2t32 6t22.5 17.5t7.5 37.5v95q0 20 2.5 37t7.5 30
q5 14 16 26t27 24v0l1 1h0.5h0.5q1 0 1.5 0.5l1.5 1.5v2v0z" />
    <glyph glyph-name="asciitilde" unicode="~" horiz-adv-x="667" 
d="M172 546l-80 67v-1l1 1v0.5v1.5t0.5 2t1.5 2q11 25 24.5 47.5t31.5 43.5q17 21 41 31.5t54 10.5q12 0 23.5 -2t22.5 -7q11 -4 22.5 -8.5t23.5 -9.5q2 -1 4.5 -2.5t5.5 -3.5q2 -1 4.5 -2t5.5 -2q8 -4 16.5 -7t17.5 -6q8 -3 17 -4t18 -1q12 0 22.5 4t17.5 12q8 8 14.5 17.5
t12.5 19.5v0l1 1v0.5v0.5q0 1 0.5 1.5l1.5 1.5l79 -65q-11 -28 -25 -52t-31 -46t-42 -33t-57 -11q-13 0 -25 2t-24 6q-12 5 -23 9.5t-22 10.5q-12 5 -23 9.5t-22 8.5q-11 5 -21.5 7t-21.5 2t-20 -3.5t-17 -11.5q-7 -7 -13 -15.5t-11 -17.5q-1 -1 -2 -2.5t-2 -3.5
q0 -1 -0.5 -1.5l-0.5 -0.5q-1 -1 -1 -1.5v-1.5v2v0z" />
    <glyph glyph-name="Adieresis" unicode="&#xc4;" horiz-adv-x="660" 
d="M450 115h-239l-32 -115h-186l200 667h271l203 -667h-182l-35 115v0zM415 244l-84 290l-82 -290h166v0zM285 819v-92h-97v92h97v0zM471 819v-92h-97v92h97v0z" />
    <glyph glyph-name="Aring" unicode="&#xc5;" horiz-adv-x="660" 
d="M450 115h-239l-32 -115h-186l200 667h271l203 -667h-182l-35 115v0zM415 244l-84 290l-82 -290h166v0zM330 707q0 -1 -0.5 -1h-1.5h-1.5h-0.5q-17 0 -31.5 6t-26.5 18q-13 13 -19 28.5t-6 33.5q0 17 6 32t19 28t28.5 19.5t33.5 6.5q17 0 32 -6.5t28 -19.5t19.5 -28
t6.5 -32q0 -18 -6.5 -33.5t-19.5 -28.5t-28 -19t-32 -6v2v0zM330 754q0 -1 0.5 -1h1.5h1.5h0.5q7 0 13 3t11 8q6 6 9 13t3 15t-3 15t-9 13t-13 9t-15 3t-15 -3t-13 -9t-9 -13t-3 -15t3 -15t9 -13t13 -9t15 -3v2v0z" />
    <glyph glyph-name="Ccedilla" unicode="&#xc7;" horiz-adv-x="638" 
d="M327 -37l44 -82l-145 -52l-28 52l129 82v0zM442 252h177v-20q0 -32 -2.5 -61t-7.5 -56t-23 -49.5t-48 -39.5q-19 -11 -39.5 -18t-41.5 -8q-21 -3 -42.5 -4.5t-43.5 -1.5h-8.5h-9.5q-4 1 -8.5 1h-9.5h-18h-17h-2.5h-3.5q-1 1 -2.5 1h-3.5h-6h-6h-6h-6q-3 1 -6 1h-6h-12
h-12q-66 6 -106.5 30.5t-55.5 66.5q-16 42 -24 91t-9 104l-1 89q0 85 16.5 143t49.5 88t91.5 45t142.5 15l56 2q3 -2 6 -2h6h3.5h3.5h3h3q27 -1 52.5 -5t50.5 -12q24 -7 43.5 -23t33.5 -40q7 -12 11.5 -25t7.5 -27l2 -14t2 -13q1 -7 1.5 -14t0.5 -14v-8v-8v-4t1 -4v-3.5
v-3.5v-2v-2v-1.5v-0.5v-1.5v-1.5v-1.5v-1.5v-11h-180q0 26 -6 44t-17 27q-11 8 -30 12.5t-45 4.5l-22 2q-1 -1 -3 -1.5t-3 -0.5h-3.5h-3.5h-4h-3q-2 -1 -3.5 -1h-3.5q-8 -1 -15.5 -2.5t-15.5 -3.5q-7 -3 -13 -7t-11 -10q-4 -5 -7 -10.5t-5 -11.5l-2 -6l-2 -6q0 -4 -0.5 -7
t-0.5 -6q0 -1 -0.5 -2.5t-0.5 -2.5q-1 -2 -1 -3v-3v-5.5v-4.5q0 -4 -0.5 -7.5t-0.5 -6.5q-1 -4 -1 -7.5v-7.5v-7.5v-6.5q-1 -4 -1 -7.5v-6.5v-14.5v-15.5v-14v-14v-4.5v-4.5v-4v-4v-5v-4v-4.5v-4.5q0 -37 5.5 -61.5t15.5 -38.5q11 -13 34 -20t60 -7q26 0 46.5 3.5t35.5 10.5
t23 25t8 47v2v2v2.5v2.5q-1 1 -1 2v2v2v2v2v0z" />
    <glyph glyph-name="Eacute" unicode="&#xc9;" horiz-adv-x="580" 
d="M233 520v-120h284v-124h-284v-129h310v-147h-489v667h483v-147h-304v0zM358 855l45 -98l-201 -64l-25 55l181 107v0z" />
    <glyph glyph-name="Ntilde" unicode="&#xd1;" horiz-adv-x="774" 
d="M720 667v-667h-303l-188 513h-8l8 -513h-175v667h301l188 -507h7l-7 507h177v0zM508 830l72 -37q-9 -19 -20 -34.5t-24 -28.5t-30.5 -19.5t-39.5 -6.5q-11 0 -21.5 2.5t-20.5 6.5q-10 5 -19 10t-18 11q-4 2 -8 4.5t-8 5.5q-4 2 -8 4.5t-8 4.5q-5 2 -9.5 4.5t-9.5 3.5
q-2 1 -4.5 1.5t-4.5 0.5q-3 1 -5.5 1h-4.5q-9 0 -16 -3t-13 -9t-11 -12t-9 -12v-0.5v-0.5l-1 -1v0v0v0v-1v0l-73 41q1 0 1.5 0.5l1.5 1.5q0 1 0.5 2t1.5 2q2 2 3.5 4t2.5 4q9 13 19.5 25t22.5 22q12 11 27 16.5t32 5.5q12 0 23.5 -2.5t21.5 -7.5q11 -4 20.5 -9.5t18.5 -11.5
q5 -3 9.5 -6t8.5 -6q5 -3 9.5 -5.5t8.5 -4.5t8 -3.5t8 -3.5q5 -1 9.5 -1.5t8.5 -0.5q8 0 15 2.5t12 7.5t9 11t8 13q0 1 0.5 1.5l1.5 1.5q0 1 0.5 2t1.5 2v2v0z" />
    <glyph glyph-name="Odieresis" unicode="&#xd6;" horiz-adv-x="682" 
d="M33 329v18v20v10v11q0 5 0.5 10t0.5 10q0 10 1 20l2 20q0 5 0.5 10t1.5 11q1 5 1.5 10t1.5 10q9 56 34.5 92.5t67.5 52.5q41 17 86 25.5t93 9.5h4.5h5.5h4.5h5.5q86 0 147 -15t95 -44q35 -29 52 -89t17 -150q0 -93 -10.5 -163t-30.5 -118t-86 -71.5t-179 -23.5h-8h-8
q-5 1 -9 1h-8h-8.5h-8.5q-5 1 -9 1h-8q-38 1 -74 8.5t-69 21.5q-34 14 -56.5 42t-34.5 70q-5 17 -8 34t-4 35q-1 17 -1.5 34.5t-0.5 35.5v51v0zM216 332v-40q0 -37 4 -64t11 -45q8 -19 32 -28t66 -9q46 0 75 7t41 22t18.5 43.5t6.5 71.5v12v12v12t1 13v12v12v12v12
q0 33 -5 57.5t-14 40.5q-10 15 -32.5 23t-58.5 8q-52 0 -83 -7t-41 -21t-15 -52.5t-6 -101.5v-1.5v-0.5v-1.5v-0.5v2v0zM299 819v-92h-97v92h97v0zM485 819v-92h-97v92h97v0z" />
    <glyph glyph-name="Udieresis" unicode="&#xdc;" horiz-adv-x="688" 
d="M455 667h179v-421v-7.5v-6.5q-1 -3 -1 -6v-6v-6v-6q-1 -3 -1 -5.5v-5.5q-1 -2 -1 -4v-4v-2v-2q-1 -1 -1 -2v-2v-4v-4q-1 -2 -1 -4v-4v-4v-4q-1 -2 -1 -4v-4q-7 -50 -29.5 -81.5t-59.5 -45.5q-37 -13 -77 -19.5t-83 -6.5h-24q-72 0 -128 7.5t-95 23.5q-39 17 -58.5 67.5
t-19.5 135.5v437h179v-435q0 -31 7 -49t20 -24q14 -6 34 -9t45 -3q32 0 54 3t35 10q14 6 20.5 26t6.5 54v427v0zM300 820v-92h-97v92h97v0zM486 820v-92h-97v92h97v0z" />
    <glyph glyph-name="aacute" unicode="&#xe1;" horiz-adv-x="536" 
d="M209 328h-154q0 50 15 80.5t45 40.5t66.5 15t78.5 5q49 0 90 -6.5t74 -18.5q33 -13 50 -49t17 -95v-300h-152l6 69h-6q-3 -20 -12 -33t-23 -21q-14 -7 -29.5 -11.5t-32.5 -5.5q-3 0 -6 -0.5t-6 -0.5q-4 -1 -7 -1h-6h-6t-6 -1h-5.5h-5.5q-35 0 -63.5 7t-50.5 22t-33 41.5
t-11 64.5q0 47 12 77t36 45t56.5 22.5t73.5 7.5h4h4h4.5h4.5q15 -1 30 -3t29 -7q14 -4 25 -14.5t18 -26.5l6 2v85q0 16 -4 27.5t-12 17.5q-7 6 -20 9.5t-30 3.5q-16 0 -28 -2t-20 -7q-7 -4 -11 -14.5t-5 -26.5v2v0zM189 144q0 -20 5.5 -31.5t17.5 -14.5q11 -3 24 -4.5
t28 -1.5q14 0 27 2t25 6q11 5 17 15.5t6 27.5v1.5v1.5v1.5v1.5q0 4 -0.5 7.5t-1.5 7.5q-1 3 -3 6t-5 6q-4 3 -9 5.5t-10 3.5q-5 2 -10.5 2.5t-11.5 1.5h-4t-4 1h-5h-4h-8h-7q-14 0 -26 -2t-22 -6t-14.5 -14t-4.5 -26v2v0zM339 661l45 -98l-201 -64l-25 55l181 107v0z" />
    <glyph glyph-name="agrave" unicode="&#xe0;" horiz-adv-x="536" 
d="M209 328h-154q0 50 15 80.5t45 40.5t66.5 15t78.5 5q49 0 90 -6.5t74 -18.5q33 -13 50 -49t17 -95v-300h-152l6 69h-6q-3 -20 -12 -33t-23 -21q-14 -7 -29.5 -11.5t-32.5 -5.5q-3 0 -6 -0.5t-6 -0.5q-4 -1 -7 -1h-6h-6t-6 -1h-5.5h-5.5q-35 0 -63.5 7t-50.5 22t-33 41.5
t-11 64.5q0 47 12 77t36 45t56.5 22.5t73.5 7.5h4h4h4.5h4.5q15 -1 30 -3t29 -7q14 -4 25 -14.5t18 -26.5l6 2v85q0 16 -4 27.5t-12 17.5q-7 6 -20 9.5t-30 3.5q-16 0 -28 -2t-20 -7q-7 -4 -11 -14.5t-5 -26.5v2v0zM189 144q0 -20 5.5 -31.5t17.5 -14.5q11 -3 24 -4.5
t28 -1.5q14 0 27 2t25 6q11 5 17 15.5t6 27.5v1.5v1.5v1.5v1.5q0 4 -0.5 7.5t-1.5 7.5q-1 3 -3 6t-5 6q-4 3 -9 5.5t-10 3.5q-5 2 -10.5 2.5t-11.5 1.5h-4t-4 1h-5h-4h-8h-7q-14 0 -26 -2t-22 -6t-14.5 -14t-4.5 -26v2v0zM203 661l181 -107l-25 -55l-201 64l45 98v0z" />
    <glyph glyph-name="acircumflex" unicode="&#xe2;" horiz-adv-x="536" 
d="M209 328h-154q0 50 15 80.5t45 40.5t66.5 15t78.5 5q49 0 90 -6.5t74 -18.5q33 -13 50 -49t17 -95v-300h-152l6 69h-6q-3 -20 -12 -33t-23 -21q-14 -7 -29.5 -11.5t-32.5 -5.5q-3 0 -6 -0.5t-6 -0.5q-4 -1 -7 -1h-6h-6t-6 -1h-5.5h-5.5q-35 0 -63.5 7t-50.5 22t-33 41.5
t-11 64.5q0 47 12 77t36 45t56.5 22.5t73.5 7.5h4h4h4.5h4.5q15 -1 30 -3t29 -7q14 -4 25 -14.5t18 -26.5l6 2v85q0 16 -4 27.5t-12 17.5q-7 6 -20 9.5t-30 3.5q-16 0 -28 -2t-20 -7q-7 -4 -11 -14.5t-5 -26.5v2v0zM189 144q0 -20 5.5 -31.5t17.5 -14.5q11 -3 24 -4.5
t28 -1.5q14 0 27 2t25 6q11 5 17 15.5t6 27.5v1.5v1.5v1.5v1.5q0 4 -0.5 7.5t-1.5 7.5q-1 3 -3 6t-5 6q-4 3 -9 5.5t-10 3.5q-5 2 -10.5 2.5t-11.5 1.5h-4t-4 1h-5h-4h-8h-7q-14 0 -26 -2t-22 -6t-14.5 -14t-4.5 -26v2v0zM269 665l163 -97l-22 -51l-141 51l-135 -51l-24 51
l159 97v0z" />
    <glyph glyph-name="adieresis" unicode="&#xe4;" horiz-adv-x="536" 
d="M209 328h-154q0 50 15 80.5t45 40.5t66.5 15t78.5 5q49 0 90 -6.5t74 -18.5q33 -13 50 -49t17 -95v-300h-152l6 69h-6q-3 -20 -12 -33t-23 -21q-14 -7 -29.5 -11.5t-32.5 -5.5q-3 0 -6 -0.5t-6 -0.5q-4 -1 -7 -1h-6h-6t-6 -1h-5.5h-5.5q-35 0 -63.5 7t-50.5 22t-33 41.5
t-11 64.5q0 47 12 77t36 45t56.5 22.5t73.5 7.5h4h4h4.5h4.5q15 -1 30 -3t29 -7q14 -4 25 -14.5t18 -26.5l6 2v85q0 16 -4 27.5t-12 17.5q-7 6 -20 9.5t-30 3.5q-16 0 -28 -2t-20 -7q-7 -4 -11 -14.5t-5 -26.5v2v0zM189 144q0 -20 5.5 -31.5t17.5 -14.5q11 -3 24 -4.5
t28 -1.5q14 0 27 2t25 6q11 5 17 15.5t6 27.5v1.5v1.5v1.5v1.5q0 4 -0.5 7.5t-1.5 7.5q-1 3 -3 6t-5 6q-4 3 -9 5.5t-10 3.5q-5 2 -10.5 2.5t-11.5 1.5h-4t-4 1h-5h-4h-8h-7q-14 0 -26 -2t-22 -6t-14.5 -14t-4.5 -26v2v0zM226 622v-92h-97v92h97v0zM412 622v-92h-97v92h97v0
z" />
    <glyph glyph-name="atilde" unicode="&#xe3;" horiz-adv-x="536" 
d="M209 328h-154q0 50 15 80.5t45 40.5t66.5 15t78.5 5q49 0 90 -6.5t74 -18.5q33 -13 50 -49t17 -95v-300h-152l6 69h-6q-3 -20 -12 -33t-23 -21q-14 -7 -29.5 -11.5t-32.5 -5.5q-3 0 -6 -0.5t-6 -0.5q-4 -1 -7 -1h-6h-6t-6 -1h-5.5h-5.5q-35 0 -63.5 7t-50.5 22t-33 41.5
t-11 64.5q0 47 12 77t36 45t56.5 22.5t73.5 7.5h4h4h4.5h4.5q15 -1 30 -3t29 -7q14 -4 25 -14.5t18 -26.5l6 2v85q0 16 -4 27.5t-12 17.5q-7 6 -20 9.5t-30 3.5q-16 0 -28 -2t-20 -7q-7 -4 -11 -14.5t-5 -26.5v2v0zM189 144q0 -20 5.5 -31.5t17.5 -14.5q11 -3 24 -4.5
t28 -1.5q14 0 27 2t25 6q11 5 17 15.5t6 27.5v1.5v1.5v1.5v1.5q0 4 -0.5 7.5t-1.5 7.5q-1 3 -3 6t-5 6q-4 3 -9 5.5t-10 3.5q-5 2 -10.5 2.5t-11.5 1.5h-4t-4 1h-5h-4h-8h-7q-14 0 -26 -2t-22 -6t-14.5 -14t-4.5 -26v2v0zM391 636l72 -37q-9 -19 -20 -34.5t-24 -28.5
t-30.5 -19.5t-39.5 -6.5q-11 0 -21.5 2.5t-20.5 6.5q-10 5 -19 10t-18 11q-4 2 -8 4.5t-8 5.5q-4 2 -8 4.5t-8 4.5q-5 2 -9.5 4.5t-9.5 3.5q-2 1 -4.5 1.5t-4.5 0.5q-3 1 -5.5 1h-4.5q-9 0 -16 -3t-13 -9t-11 -12t-9 -12v-0.5v-0.5l-1 -1v0v0v0v-1v0l-73 41q1 0 1.5 0.5
l1.5 1.5q0 1 0.5 2t1.5 2q2 2 3.5 4t2.5 4q9 13 19.5 25t22.5 22q12 11 27 16.5t32 5.5q12 0 23.5 -2.5t21.5 -7.5q11 -4 20.5 -9.5t18.5 -11.5q5 -3 9.5 -6t8.5 -6q5 -3 9.5 -5.5t8.5 -4.5t8 -3.5t8 -3.5q5 -1 9.5 -1.5t8.5 -0.5q8 0 15 2.5t12 7.5t9 11t8 13q0 1 0.5 1.5
l1.5 1.5q0 1 0.5 2t1.5 2v2v0z" />
    <glyph glyph-name="aring" unicode="&#xe5;" horiz-adv-x="536" 
d="M209 328h-154q0 50 15 80.5t45 40.5t66.5 15t78.5 5q49 0 90 -6.5t74 -18.5q33 -13 50 -49t17 -95v-300h-152l6 69h-6q-3 -20 -12 -33t-23 -21q-14 -7 -29.5 -11.5t-32.5 -5.5q-3 0 -6 -0.5t-6 -0.5q-4 -1 -7 -1h-6h-6t-6 -1h-5.5h-5.5q-35 0 -63.5 7t-50.5 22t-33 41.5
t-11 64.5q0 47 12 77t36 45t56.5 22.5t73.5 7.5h4h4h4.5h4.5q15 -1 30 -3t29 -7q14 -4 25 -14.5t18 -26.5l6 2v85q0 16 -4 27.5t-12 17.5q-7 6 -20 9.5t-30 3.5q-16 0 -28 -2t-20 -7q-7 -4 -11 -14.5t-5 -26.5v2v0zM189 144q0 -20 5.5 -31.5t17.5 -14.5q11 -3 24 -4.5
t28 -1.5q14 0 27 2t25 6q11 5 17 15.5t6 27.5v1.5v1.5v1.5v1.5q0 4 -0.5 7.5t-1.5 7.5q-1 3 -3 6t-5 6q-4 3 -9 5.5t-10 3.5q-5 2 -10.5 2.5t-11.5 1.5h-4t-4 1h-5h-4h-8h-7q-14 0 -26 -2t-22 -6t-14.5 -14t-4.5 -26v2v0zM271 503q0 -1 -0.5 -1h-1.5h-1.5h-0.5
q-17 0 -31.5 6t-26.5 18q-13 13 -19 28.5t-6 33.5q0 17 6 32t19 28t28.5 19.5t33.5 6.5q17 0 32 -6.5t28 -19.5t19.5 -28t6.5 -32q0 -18 -6.5 -33.5t-19.5 -28.5t-28 -19t-32 -6v2v0zM271 550q0 -1 0.5 -1h1.5h1.5h0.5q7 0 13 3t11 8q6 6 9 13t3 15t-3 15t-9 13t-13 9t-15 3
t-15 -3t-13 -9t-9 -13t-3 -15t3 -15t9 -13t13 -9t15 -3v2v0z" />
    <glyph glyph-name="ccedilla" unicode="&#xe7;" horiz-adv-x="496" 
d="M295 -36l39 -73l-128 -46l-25 46l114 73v0zM332 187h148q0 -53 -9.5 -89.5t-28.5 -58.5t-55.5 -32.5t-91.5 -10.5q-64 0 -112.5 8t-81.5 26t-49.5 63t-16.5 118q0 64 9.5 112t28.5 81t64 49.5t115 16.5q53 0 95 -7.5t72 -21.5q30 -15 45.5 -52.5t15.5 -98.5l-147 2
q0 18 -3.5 30.5t-10.5 19.5t-20.5 10.5t-33.5 3.5q-27 0 -43.5 -6.5t-22.5 -19.5t-9 -31.5t-3 -43.5v-48q0 -23 2.5 -40.5t6.5 -31.5q5 -13 20 -20t41 -7q24 0 39 4t22 12t10.5 23.5t3.5 37.5v2v0z" />
    <glyph glyph-name="eacute" unicode="&#xe9;" horiz-adv-x="510" 
d="M335 156h148q0 -56 -14 -90t-43 -47q-28 -13 -66.5 -18.5t-86.5 -5.5q-68 0 -115 11t-73 34q-25 23 -38 69t-13 115q0 66 10 113.5t31 75.5t66 42t115 14q59 0 102.5 -10.5t70.5 -30.5t40.5 -62t13.5 -106v-53h-299q0 -28 2.5 -47.5t8.5 -33.5q6 -13 24 -20t49 -7
q16 0 28 2.5t21 7.5q8 5 12.5 16.5t5.5 28.5v2v0zM337 291q0 17 -4 30.5t-12 22.5q-8 8 -21.5 12.5t-33.5 4.5l-8 2q-25 -2 -40 -6.5t-21 -13.5t-8.5 -22.5t-2.5 -31.5l151 2v0zM327 661l45 -98l-201 -64l-25 55l181 107v0z" />
    <glyph glyph-name="egrave" unicode="&#xe8;" horiz-adv-x="510" 
d="M335 156h148q0 -56 -14 -90t-43 -47q-28 -13 -66.5 -18.5t-86.5 -5.5q-68 0 -115 11t-73 34q-25 23 -38 69t-13 115q0 66 10 113.5t31 75.5t66 42t115 14q59 0 102.5 -10.5t70.5 -30.5t40.5 -62t13.5 -106v-53h-299q0 -28 2.5 -47.5t8.5 -33.5q6 -13 24 -20t49 -7
q16 0 28 2.5t21 7.5q8 5 12.5 16.5t5.5 28.5v2v0zM337 291q0 17 -4 30.5t-12 22.5q-8 8 -21.5 12.5t-33.5 4.5l-8 2q-25 -2 -40 -6.5t-21 -13.5t-8.5 -22.5t-2.5 -31.5l151 2v0zM191 661l181 -107l-25 -55l-201 64l45 98v0z" />
    <glyph glyph-name="ecircumflex" unicode="&#xea;" horiz-adv-x="510" 
d="M335 156h148q0 -56 -14 -90t-43 -47q-28 -13 -66.5 -18.5t-86.5 -5.5q-68 0 -115 11t-73 34q-25 23 -38 69t-13 115q0 66 10 113.5t31 75.5t66 42t115 14q59 0 102.5 -10.5t70.5 -30.5t40.5 -62t13.5 -106v-53h-299q0 -28 2.5 -47.5t8.5 -33.5q6 -13 24 -20t49 -7
q16 0 28 2.5t21 7.5q8 5 12.5 16.5t5.5 28.5v2v0zM337 291q0 17 -4 30.5t-12 22.5q-8 8 -21.5 12.5t-33.5 4.5l-8 2q-25 -2 -40 -6.5t-21 -13.5t-8.5 -22.5t-2.5 -31.5l151 2v0zM257 665l163 -97l-22 -51l-141 51l-135 -51l-24 51l159 97v0z" />
    <glyph glyph-name="edieresis" unicode="&#xeb;" horiz-adv-x="510" 
d="M335 156h148q0 -56 -14 -90t-43 -47q-28 -13 -66.5 -18.5t-86.5 -5.5q-68 0 -115 11t-73 34q-25 23 -38 69t-13 115q0 66 10 113.5t31 75.5t66 42t115 14q59 0 102.5 -10.5t70.5 -30.5t40.5 -62t13.5 -106v-53h-299q0 -28 2.5 -47.5t8.5 -33.5q6 -13 24 -20t49 -7
q16 0 28 2.5t21 7.5q8 5 12.5 16.5t5.5 28.5v2v0zM337 291q0 17 -4 30.5t-12 22.5q-8 8 -21.5 12.5t-33.5 4.5l-8 2q-25 -2 -40 -6.5t-21 -13.5t-8.5 -22.5t-2.5 -31.5l151 2v0zM215 622v-92h-97v92h97v0zM401 622v-92h-97v92h97v0z" />
    <glyph glyph-name="iacute" unicode="&#xed;" horiz-adv-x="253" 
d="M202 467v-467h-152v467h152v0zM194 661l45 -98l-201 -64l-25 55l181 107v0z" />
    <glyph glyph-name="igrave" unicode="&#xec;" horiz-adv-x="253" 
d="M202 467v-467h-152v467h152v0zM58 661l181 -107l-25 -55l-201 64l45 98v0z" />
    <glyph glyph-name="icircumflex" unicode="&#xee;" horiz-adv-x="253" 
d="M202 467v-467h-152v467h152v0zM124 665l163 -97l-22 -51l-141 51l-135 -51l-24 51l159 97v0z" />
    <glyph glyph-name="idieresis" unicode="&#xef;" horiz-adv-x="253" 
d="M202 467v-467h-152v467h152v0zM82 622v-92h-97v92h97v0zM268 622v-92h-97v92h97v0z" />
    <glyph glyph-name="ntilde" unicode="&#xf1;" horiz-adv-x="544" 
d="M51 467h146v-85h6q8 22 20.5 39t28.5 27q17 11 37 16t45 5q36 0 66 -8t52 -23q23 -16 34 -43.5t11 -67.5v-327h-152v274q0 13 -2.5 26.5t-7.5 25.5q-4 12 -15.5 18.5t-29.5 6.5q-19 0 -35 -5t-28 -14t-18 -24t-6 -36v-272h-152v467v0zM393 637l72 -37q-9 -19 -20 -34.5
t-24 -28.5t-30.5 -19.5t-39.5 -6.5q-11 0 -21.5 2.5t-20.5 6.5q-10 5 -19 10t-18 11q-4 2 -8 4.5t-8 5.5q-4 2 -8 4.5t-8 4.5q-5 2 -9.5 4.5t-9.5 3.5q-2 1 -4.5 1.5t-4.5 0.5q-3 1 -5.5 1h-4.5q-9 0 -16 -3t-13 -9t-11 -12t-9 -12v-0.5v-0.5l-1 -1v0v0v0v-1v0l-73 41
q1 0 1.5 0.5l1.5 1.5q0 1 0.5 2t1.5 2q2 2 3.5 4t2.5 4q9 13 19.5 25t22.5 22q12 11 27 16.5t32 5.5q12 0 23.5 -2.5t21.5 -7.5q11 -4 20.5 -9.5t18.5 -11.5q5 -3 9.5 -6t8.5 -6q5 -3 9.5 -5.5t8.5 -4.5t8 -3.5t8 -3.5q5 -1 9.5 -1.5t8.5 -0.5q8 0 15 2.5t12 7.5t9 11t8 13
q0 1 0.5 1.5l1.5 1.5q0 1 0.5 2t1.5 2v2v0z" />
    <glyph glyph-name="oacute" unicode="&#xf3;" horiz-adv-x="527" 
d="M38 258q0 61 11.5 103t35.5 64t67 33t105 11q64 0 110.5 -9t76.5 -26q30 -18 45 -62.5t15 -115.5q0 -67 -8 -116.5t-23 -81.5t-62 -47.5t-127 -15.5q-62 0 -108.5 8.5t-76.5 26.5q-31 18 -46 61.5t-15 113.5v53v0zM191 234v-23q0 -25 3 -44t10 -33t24 -21t45 -7
q23 0 39 5.5t23 17.5q8 11 11.5 28t4.5 39v8v8v4v5q0 2 0.5 4t0.5 4v8v8v4v5v4v4q0 24 -3.5 42t-10.5 29t-23.5 17t-42.5 6q-28 0 -45.5 -7.5t-23.5 -21.5q-6 -15 -9 -35t-3 -46v-12v0zM339 661l45 -98l-201 -64l-25 55l181 107v0z" />
    <glyph glyph-name="ograve" unicode="&#xf2;" horiz-adv-x="527" 
d="M38 258q0 61 11.5 103t35.5 64t67 33t105 11q64 0 110.5 -9t76.5 -26q30 -18 45 -62.5t15 -115.5q0 -67 -8 -116.5t-23 -81.5t-62 -47.5t-127 -15.5q-62 0 -108.5 8.5t-76.5 26.5q-31 18 -46 61.5t-15 113.5v53v0zM191 234v-23q0 -25 3 -44t10 -33t24 -21t45 -7
q23 0 39 5.5t23 17.5q8 11 11.5 28t4.5 39v8v8v4v5q0 2 0.5 4t0.5 4v8v8v4v5v4v4q0 24 -3.5 42t-10.5 29t-23.5 17t-42.5 6q-28 0 -45.5 -7.5t-23.5 -21.5q-6 -15 -9 -35t-3 -46v-12v0zM203 661l181 -107l-25 -55l-201 64l45 98v0z" />
    <glyph glyph-name="ocircumflex" unicode="&#xf4;" horiz-adv-x="527" 
d="M38 258q0 61 11.5 103t35.5 64t67 33t105 11q64 0 110.5 -9t76.5 -26q30 -18 45 -62.5t15 -115.5q0 -67 -8 -116.5t-23 -81.5t-62 -47.5t-127 -15.5q-62 0 -108.5 8.5t-76.5 26.5q-31 18 -46 61.5t-15 113.5v53v0zM191 234v-23q0 -25 3 -44t10 -33t24 -21t45 -7
q23 0 39 5.5t23 17.5q8 11 11.5 28t4.5 39v8v8v4v5q0 2 0.5 4t0.5 4v8v8v4v5v4v4q0 24 -3.5 42t-10.5 29t-23.5 17t-42.5 6q-28 0 -45.5 -7.5t-23.5 -21.5q-6 -15 -9 -35t-3 -46v-12v0zM269 665l163 -97l-22 -51l-141 51l-135 -51l-24 51l159 97v0z" />
    <glyph glyph-name="odieresis" unicode="&#xf6;" horiz-adv-x="527" 
d="M38 258q0 61 11.5 103t35.5 64t67 33t105 11q64 0 110.5 -9t76.5 -26q30 -18 45 -62.5t15 -115.5q0 -67 -8 -116.5t-23 -81.5t-62 -47.5t-127 -15.5q-62 0 -108.5 8.5t-76.5 26.5q-31 18 -46 61.5t-15 113.5v53v0zM191 234v-23q0 -25 3 -44t10 -33t24 -21t45 -7
q23 0 39 5.5t23 17.5q8 11 11.5 28t4.5 39v8v8v4v5q0 2 0.5 4t0.5 4v8v8v4v5v4v4q0 24 -3.5 42t-10.5 29t-23.5 17t-42.5 6q-28 0 -45.5 -7.5t-23.5 -21.5q-6 -15 -9 -35t-3 -46v-12v0zM227 622v-92h-97v92h97v0zM413 622v-92h-97v92h97v0z" />
    <glyph glyph-name="otilde" unicode="&#xf5;" horiz-adv-x="527" 
d="M38 258q0 61 11.5 103t35.5 64t67 33t105 11q64 0 110.5 -9t76.5 -26q30 -18 45 -62.5t15 -115.5q0 -67 -8 -116.5t-23 -81.5t-62 -47.5t-127 -15.5q-62 0 -108.5 8.5t-76.5 26.5q-31 18 -46 61.5t-15 113.5v53v0zM191 234v-23q0 -25 3 -44t10 -33t24 -21t45 -7
q23 0 39 5.5t23 17.5q8 11 11.5 28t4.5 39v8v8v4v5q0 2 0.5 4t0.5 4v8v8v4v5v4v4q0 24 -3.5 42t-10.5 29t-23.5 17t-42.5 6q-28 0 -45.5 -7.5t-23.5 -21.5q-6 -15 -9 -35t-3 -46v-12v0zM392 636l72 -37q-9 -19 -20 -34.5t-24 -28.5t-30.5 -19.5t-39.5 -6.5q-11 0 -21.5 2.5
t-20.5 6.5q-10 5 -19 10t-18 11q-4 2 -8 4.5t-8 5.5q-4 2 -8 4.5t-8 4.5q-5 2 -9.5 4.5t-9.5 3.5q-2 1 -4.5 1.5t-4.5 0.5q-3 1 -5.5 1h-4.5q-9 0 -16 -3t-13 -9t-11 -12t-9 -12v-0.5v-0.5l-1 -1v0v0v0v-1v0l-73 41q1 0 1.5 0.5l1.5 1.5q0 1 0.5 2t1.5 2q2 2 3.5 4t2.5 4
q9 13 19.5 25t22.5 22q12 11 27 16.5t32 5.5q12 0 23.5 -2.5t21.5 -7.5q11 -4 20.5 -9.5t18.5 -11.5q5 -3 9.5 -6t8.5 -6q5 -3 9.5 -5.5t8.5 -4.5t8 -3.5t8 -3.5q5 -1 9.5 -1.5t8.5 -0.5q8 0 15 2.5t12 7.5t9 11t8 13q0 1 0.5 1.5l1.5 1.5q0 1 0.5 2t1.5 2v2v0z" />
    <glyph glyph-name="uacute" unicode="&#xfa;" horiz-adv-x="545" 
d="M494 467v-467h-150l5 89h-7q-8 -26 -21 -44.5t-31 -29.5q-18 -10 -39.5 -15t-47.5 -5q-39 0 -68 9t-49 28q-19 20 -29 49t-10 68v318h152v-267q0 -19 2.5 -34t8.5 -28q5 -13 18 -19.5t33 -6.5t35 5.5t25 17.5q11 11 16 26.5t5 34.5v26v245h152v0zM340 661l45 -98
l-201 -64l-25 55l181 107v0z" />
    <glyph glyph-name="ugrave" unicode="&#xf9;" horiz-adv-x="545" 
d="M494 467v-467h-150l5 89h-7q-8 -26 -21 -44.5t-31 -29.5q-18 -10 -39.5 -15t-47.5 -5q-39 0 -68 9t-49 28q-19 20 -29 49t-10 68v318h152v-267q0 -19 2.5 -34t8.5 -28q5 -13 18 -19.5t33 -6.5t35 5.5t25 17.5q11 11 16 26.5t5 34.5v26v245h152v0zM204 661l181 -107
l-25 -55l-201 64l45 98v0z" />
    <glyph glyph-name="ucircumflex" unicode="&#xfb;" horiz-adv-x="545" 
d="M494 467v-467h-150l5 89h-7q-8 -26 -21 -44.5t-31 -29.5q-18 -10 -39.5 -15t-47.5 -5q-39 0 -68 9t-49 28q-19 20 -29 49t-10 68v318h152v-267q0 -19 2.5 -34t8.5 -28q5 -13 18 -19.5t33 -6.5t35 5.5t25 17.5q11 11 16 26.5t5 34.5v26v245h152v0zM270 665l163 -97
l-22 -51l-141 51l-135 -51l-24 51l159 97v0z" />
    <glyph glyph-name="udieresis" unicode="&#xfc;" horiz-adv-x="545" 
d="M494 467v-467h-150l5 89h-7q-8 -26 -21 -44.5t-31 -29.5q-18 -10 -39.5 -15t-47.5 -5q-39 0 -68 9t-49 28q-19 20 -29 49t-10 68v318h152v-267q0 -19 2.5 -34t8.5 -28q5 -13 18 -19.5t33 -6.5t35 5.5t25 17.5q11 11 16 26.5t5 34.5v26v245h152v0zM228 622v-92h-97v92h97
v0zM414 622v-92h-97v92h97v0z" />
    <glyph glyph-name="dagger" unicode="&#x2020;" horiz-adv-x="640" 
d="M398 667v-194h173v-113h-173v-573h-156v573h-173v113h173v194h156v0z" />
    <glyph glyph-name="degree" horiz-adv-x="500" 
d="M251 503q0 -1 -0.5 -1h-1.5h-1.5h-0.5q-17 0 -31.5 6t-26.5 18q-13 13 -19 28.5t-6 33.5q0 17 6 32t19 28t28.5 19.5t33.5 6.5q17 0 32 -6.5t28 -19.5t19.5 -28t6.5 -32q0 -18 -6.5 -33.5t-19.5 -28.5t-28 -19t-32 -6v2v0zM251 550q0 -1 0.5 -1h1.5h1.5h0.5q7 0 13 3
t11 8q6 6 9 13t3 15t-3 15t-9 13t-13 9t-15 3t-15 -3t-13 -9t-9 -13t-3 -15t3 -15t9 -13t13 -9t15 -3v2v0z" />
    <glyph glyph-name="cent" unicode="&#xa2;" horiz-adv-x="640" 
d="M402 266h143v-19v-10.5v-9.5v-4.5v-4.5q-1 -2 -1 -4.5v-4.5q-1 -13 -3 -26.5t-5 -26.5q-4 -13 -10.5 -24.5t-15.5 -22.5q-11 -12 -23 -19.5t-25 -10.5q-7 -1 -13.5 -2.5t-12.5 -2.5q-7 0 -13.5 -1t-13.5 -1q-5 -1 -9.5 -1.5t-9.5 -0.5h-4.5t-4.5 -1q-3 0 -5.5 -0.5
t-4.5 -0.5v-85h-86v87q-58 1 -94.5 17t-53.5 44q-16 29 -24.5 69t-8.5 92q0 56 6 101t19 79t52 53.5t104 24.5v75h86v-73q50 -2 84 -13t52 -32t27.5 -55.5t10.5 -82.5l-144 2q0 14 -4 26t-12 21t-20 14t-28 5h-6h-6h-2.5h-3.5q-1 -1 -2.5 -1h-3.5q-10 -1 -19.5 -6t-17.5 -13
q-9 -7 -13 -23t-4 -39v-5.5v-4.5v-5.5t1 -4.5v-2.5v-2.5v-3v-3v-5.5v-4.5v-5.5v-4.5v-5.5v-4.5q0 -1 -0.5 -2.5t-0.5 -2.5v-3v-3v-2.5v-2.5v-3v-3q0 -22 2.5 -38t7.5 -27q5 -10 19.5 -15.5t39.5 -5.5q23 0 38 4t22 13q6 9 9.5 24t4.5 37v2v0z" />
    <glyph glyph-name="sterling" unicode="&#xa3;" horiz-adv-x="640" 
d="M468 369v-120h-169v-14q0 -17 -1.5 -30t-3.5 -24q-3 -10 -12 -19t-25 -17v-3h368v-142h-562v142q2 -1 3.5 -1h2.5q17 0 28 4.5t15 14.5q5 11 8 24.5t3 30.5v34h-81v120h81v94v7.5v9.5v4.5v5.5q0 2 0.5 4.5t0.5 4.5q0 14 2 26.5t5 25.5t8.5 25t12.5 23q12 17 28 30t35 20
q20 8 40.5 12.5t42.5 7.5q5 1 10 1.5t11 0.5q5 1 10 1h10h10t10 1h10h10q65 0 111.5 -8t75.5 -25q29 -16 44 -58.5t15 -111.5v-24h-174q0 20 -3 34.5t-9 23.5t-21 13.5t-39 4.5q-19 0 -33.5 -3.5t-25.5 -9.5q-10 -6 -15.5 -20t-5.5 -35v-85h169v0z" />
    <glyph glyph-name="section" unicode="&#xa7;" horiz-adv-x="640" 
d="M586 457h-171q0 24 -5 39.5t-15 21.5t-27 9.5t-41 3.5l-35 2q-1 -1 -2 -1.5l-1 -0.5h-2h-2h-2h-1h-2h-2q-11 -1 -21.5 -3t-19.5 -7q-10 -4 -14.5 -12.5t-4.5 -22.5q0 -15 4 -24t12 -14q8 -4 18 -7t23 -5v0h1q0 -1 0.5 -1h0.5h1.5h1.5l188 -34q42 -9 71 -20.5t45 -26.5
q15 -15 23 -45.5t8 -76.5v-4v-4v-5v-4v-4v-4q-1 -2 -1 -4v-4q-1 -16 -4 -30.5t-8 -28.5q-5 -13 -15.5 -23.5t-25.5 -17.5q20 -8 31.5 -20t15.5 -27q5 -16 7 -33t2 -34q0 -75 -21.5 -119t-63.5 -57t-94 -19.5t-114 -6.5q-70 0 -122.5 7.5t-88.5 22.5t-53.5 63.5t-17.5 130.5
l163 2q1 -28 7 -46t17 -25q11 -8 29.5 -11.5t45.5 -3.5h37h4.5h4.5h4.5h4.5q7 1 13.5 1.5t13.5 1.5t13.5 2.5t12.5 3.5q8 3 13.5 8t7.5 12t3 14.5t1 15.5q0 14 -4.5 23.5t-13.5 13.5q-9 5 -20 8t-23 6h-1.5h-1.5h-0.5t-0.5 1h-1v0l-232 43q-39 5 -63.5 17t-33.5 29
q-10 17 -14.5 44t-4.5 64q0 20 2.5 39.5t7.5 37.5t18 31t35 20q-17 14 -27.5 29t-13.5 32t-4.5 35.5t-1.5 38.5v4.5v5.5v6v6q1 15 4 30t8 29t14.5 26t23.5 22q15 10 31.5 17.5t34.5 12.5t37 8.5t38 5.5q10 1 20 1.5t20 0.5h10t10 1h10h10q67 0 118 -7.5t87 -21.5
q35 -14 53 -60.5t18 -125.5v2v0zM237 187l161 -30q1 -2 2 -2.5t2 -0.5h2h2q2 -1 4 -1.5t4 -0.5h2h2h1h2q14 0 24 5t16 15q5 11 8 22t3 24q0 19 -3.5 31t-11.5 18q-7 5 -18.5 9t-25.5 7h-2t-2 1h-2h-2q-2 0 -4 0.5t-4 1.5l-129 27q-2 -1 -4.5 -1t-4.5 1q-3 0 -5 0.5t-4 1.5
h-2.5t-2.5 1h-3h-2h-2t-2 1h-3h-2q-13 0 -22.5 -5t-15.5 -14t-8.5 -20t-2.5 -25q0 -16 2.5 -27.5t6.5 -19.5q5 -7 16.5 -12.5t29.5 -8.5v2v0z" />
    <glyph glyph-name="bullet" horiz-adv-x="600" 
d="M198 286q0 19 7 35.5t21 30.5t31 21t37 7t37.5 -7t31.5 -21t21.5 -31t7.5 -37t-7.5 -37t-21.5 -31t-31.5 -21t-37.5 -7t-37 7t-31 21t-21 31t-7 37v2v0z" />
    <glyph glyph-name="paragraph" unicode="&#xb6;" horiz-adv-x="640" 
d="M634 -213h-107v753h-69v-753h-106v384q-6 -1 -12 -1.5t-11 -0.5h-12h-12h-10.5t-10.5 1h-11.5h-10.5q-22 0 -44.5 0.5t-45.5 1.5q-58 4 -94 23.5t-50 54.5t-21 77t-7 91v10.5v11.5v10.5t1 11.5q2 26 6.5 50t12.5 48q8 23 24 42t41 33q11 6 21.5 10.5t22.5 8.5
q11 4 23 6.5t24 3.5h4h4h2t2 1h2h2l111 2h331v-880v0zM352 302v238h-100q-34 -2 -53.5 -10t-24.5 -25q-6 -16 -8.5 -39.5t-2.5 -53.5t3 -51t10 -35q7 -13 26.5 -19.5t50.5 -6.5l99 2v0z" />
    <glyph glyph-name="germandbls" unicode="&#xdf;" horiz-adv-x="552" 
d="M50 0v495q0 53 16 88.5t48 51.5q32 17 72 25.5t86 8.5h12h13h6h7q3 -1 6.5 -1h6.5q32 -1 60.5 -8.5t54.5 -19.5q26 -13 39.5 -39t13.5 -66q0 -26 -6.5 -47t-20.5 -37q-13 -16 -33.5 -25.5t-47.5 -11.5v-5q44 -4 72.5 -19t40.5 -42t18.5 -60t6.5 -72q0 -53 -9.5 -94
t-28.5 -70t-56.5 -43t-94.5 -14q-10 0 -20 0.5t-20 1.5t-20 1.5t-20 1.5v109q1 -2 2 -2.5t2 -0.5q0 -1 1 -1h2h1.5h1.5q1 -1 2 -1h2q3 -1 6.5 -1.5t7.5 -0.5q3 -1 6.5 -1h7.5q26 0 42 8.5t21 24.5q5 17 8 35t3 39v19q0 29 -3.5 53.5t-9.5 42.5q-7 18 -28.5 27.5t-58.5 9.5
v106q2 -2 4.5 -2h5.5h3h3h2.5h2.5q11 0 21.5 2.5t19.5 6.5q9 5 14 14t5 23q0 17 -6 28.5t-17 15.5q-11 5 -24 7.5t-27 2.5q-19 0 -33.5 -4t-22.5 -12q-9 -8 -13 -21.5t-4 -33.5v-493h-152v0z" />
    <glyph glyph-name="registered" unicode="&#xae;" horiz-adv-x="767" 
d="M386 681q71 -2 132 -28t111 -77q50 -52 75.5 -112.5t25.5 -131.5t-25.5 -132.5t-75.5 -112.5t-111 -76t-132 -25q-72 0 -133.5 24.5t-112.5 75.5t-76.5 112.5t-25.5 133.5q0 71 25.5 132.5t76.5 112.5t112.5 76.5t133.5 25.5v2v0zM386 611q-58 -2 -106.5 -22.5
t-87.5 -61.5t-58.5 -90t-19.5 -105q0 -57 19.5 -106t59.5 -90q39 -41 87.5 -61.5t105.5 -20.5q56 0 103.5 20.5t86.5 62.5q39 41 58.5 90t19.5 105t-19.5 104t-58.5 90q-39 41 -86.5 62t-103.5 21v2v0zM238 529h163q2 -2 4.5 -2h5.5h3h3q1 -1 2.5 -1h2.5q23 -2 43 -9t39 -18
q19 -12 28.5 -31t9.5 -46q0 -16 -4.5 -31t-12.5 -27q-9 -12 -20.5 -21.5t-25.5 -16.5q20 -9 31.5 -21t15.5 -28t6.5 -32t3.5 -33v-2v-2v-1.5v-1.5q0 -8 1 -16l2 -16t2.5 -15.5t4.5 -14.5l-93 2q-1 2 -2.5 6t-2.5 8q-1 5 -1.5 9.5t-0.5 8.5v2v2q-1 1 -1 2v2v4.5v4.5v1.5v1.5
q-1 1 -1 1.5v1.5v3.5v2.5q-3 29 -8 48t-13 27t-30 12.5t-58 4.5v-153h-97v384v0zM335 470v-114h45q1 -1 2 -1h2h1h2q13 0 23.5 3t18.5 9q8 7 12.5 19t4.5 28q0 14 -4.5 24.5t-12.5 16.5q-9 6 -19.5 9.5t-24.5 3.5l-50 2v0z" />
    <glyph glyph-name="copyright" unicode="&#xa9;" horiz-adv-x="767" 
d="M386 681q71 -2 132 -28t111 -77q50 -52 75.5 -113t25.5 -132q0 -70 -25.5 -131.5t-75.5 -112.5t-111 -76t-132 -25q-72 0 -133.5 24.5t-112.5 75.5t-76.5 112t-25.5 133t25.5 133.5t76.5 112.5t112.5 76.5t133.5 25.5v2v0zM386 611q-58 -2 -106.5 -23t-87.5 -62
t-58.5 -90t-19.5 -105t19.5 -105t59.5 -90q39 -41 87.5 -61.5t105.5 -20.5q56 0 103.5 20.5t86.5 62.5q39 41 58.5 90t19.5 104q0 56 -19.5 104.5t-58.5 90.5q-39 41 -86.5 62t-103.5 21v2v0zM563 296q-3 -38 -17 -67.5t-38 -51.5t-54.5 -33t-67.5 -11q-44 0 -78.5 14.5
t-60.5 42.5q-25 29 -38 64.5t-13 78.5q0 42 13 77.5t39 65.5q26 29 61 44t78 15q32 0 61 -9.5t55 -28.5t40 -45.5t16 -60.5l-74 2q-4 13 -12 23.5t-20 17.5t-25 11t-27 5h-2t-2 1h-2h-2h-4h-4q-22 0 -38.5 -8t-27.5 -24t-17 -33.5t-8 -37.5q-1 -2 -1 -4v-4v-2v-1v-2v-2v-4
v-4v-2v-1q0 -1 0.5 -2t0.5 -2q2 -19 8 -36.5t17 -33.5t27.5 -23.5t38.5 -7.5q20 0 36.5 4.5t31.5 13.5q14 9 23 24t12 35l75 2v0z" />
    <glyph glyph-name="trademark" unicode="&#x2122;" horiz-adv-x="950" 
d="M233 570v-303h-119v303h-105v97h335v-97h-111v0zM911 667v-400h-117l8 301h4l-103 -301h-102l-105 301h4l9 -301h-117v400h182l77 -247l74 247h186v0z" />
    <glyph glyph-name="acute" unicode="&#xb4;" horiz-adv-x="500" 
d="M318 661l45 -98l-201 -64l-25 55l181 107v0z" />
    <glyph glyph-name="dieresis" unicode="&#xa8;" horiz-adv-x="500" 
d="M206 622v-92h-97v92h97v0zM392 622v-92h-97v92h97v0z" />
    <glyph glyph-name="notequal" unicode="&#x2260;" 
 />
    <glyph glyph-name="AE" unicode="&#xc6;" horiz-adv-x="978" 
d="M644 520v-120h272v-124h-272v-129h296v-147h-475v117h-228l-45 -117h-192l261 667h679v-147h-296v0zM465 242v278h-75l-106 -278h181v0z" />
    <glyph glyph-name="Oslash" unicode="&#xd8;" horiz-adv-x="682" 
d="M592 605l94 81v-125l-48 -41q5 -20 7.5 -39.5t3.5 -39.5q1 -19 1.5 -38.5t0.5 -39.5q0 -92 -11 -161t-32 -115t-87 -68.5t-176 -22.5h-6h-6h-2.5h-2.5h-3h-3q-31 1 -62 3t-61 7t-57.5 19.5t-51.5 36.5l-95 -80v123l48 42q-5 21 -8 43.5t-4 44.5q-1 23 -1 46v46v13.5v13.5
v13.5t1 13.5q0 14 0.5 27.5t1.5 26.5q1 14 2.5 27.5t3.5 26.5q10 59 36.5 95.5t69.5 52.5t89.5 24t95.5 9h1.5h1.5h0.5h1.5h3.5h2.5h15.5h15.5q7 -1 15 -1h15q15 -1 30.5 -2t31.5 -3q3 -1 6 -1.5t6 -0.5q2 0 3.5 -0.5t3.5 -0.5q1 -1 3 -1h3q14 -4 28.5 -9t27.5 -13
q14 -7 25.5 -15.5t21.5 -19.5v2v0zM468 381l-236 -203q6 -9 13.5 -14.5t16.5 -8.5t18 -5t19 -2q4 -1 8 -1h8h4h5h4h4q47 0 76 8.5t39 26.5q11 17 16 46.5t5 71.5v81v0zM449 489q-6 7 -14 12t-17 8q-4 2 -9 3t-9 2q-5 0 -9.5 1t-9.5 1h-4h-4h-4h-4l-22 2q-40 -2 -66 -8
t-38 -17q-12 -12 -18 -37.5t-6 -66.5q0 -7 -0.5 -13.5t-0.5 -12.5v-13.5v-13.5v-26v-26l235 205v0z" />
    <glyph glyph-name="infinity" unicode="&#x221e;" 
 />
    <glyph glyph-name="plusminus" unicode="&#xb1;" horiz-adv-x="500" 
d="M7 93h485v-77h-485v77v0zM7 403h202v201h80v-201h203v-77h-203v-193h-80v193h-202v77v0z" />
    <glyph glyph-name="lessequal" unicode="&#x2264;" 
 />
    <glyph glyph-name="greaterequal" unicode="&#x2265;" 
 />
    <glyph glyph-name="yen" unicode="&#xa5;" horiz-adv-x="640" 
d="M539 496h84v-118h-148l-37 -69h185v-118h-219v-191h-177v191h-211v118h178l-36 69h-142v118h81l-90 171h193l113 -257h6l117 257h196l-93 -171v0z" />
    <glyph glyph-name="mu" unicode="&#xb5;" horiz-adv-x="592" 
d="M56 -171v651h152v-247v-7v-6v-5.5t1 -4.5q2 -19 7 -37t15 -35q10 -16 26.5 -24t39.5 -8q22 0 37.5 7.5t25.5 23.5q9 15 15 32t8 36v6.5v7.5v4t1 4v3v4v246h151v-480h-151v62q-6 -16 -14 -28t-19 -23q-10 -10 -23.5 -15t-30.5 -5q-16 0 -29 3.5t-24 10.5q-10 8 -19 18
t-17 23v-217h-152v0z" />
    <glyph glyph-name="partialdiff" unicode="&#x2202;" 
 />
    <glyph glyph-name="summation" unicode="&#x3a3;" 
 />
    <glyph glyph-name="product" unicode="&#x220f;" 
 />
    <glyph glyph-name="pi" unicode="&#x3c0;" 
 />
    <glyph glyph-name="integral" unicode="&#x222b;" 
 />
    <glyph glyph-name="ordfeminine" unicode="&#xaa;" horiz-adv-x="640" 
d="M154 334h332v-68h-332v68v0zM280 584h-93q0 29 9 47.5t27 24.5t40 9.5t47 3.5q31 0 56.5 -4t44.5 -12q20 -7 29.5 -29t9.5 -57v-179h-93l1 41q-3 -13 -8.5 -21t-14.5 -13q-9 -4 -18.5 -7t-20.5 -4q-4 -1 -7 -1h-6h-6h-6q-23 0 -41 5t-30 15t-18 26t-6 38q0 26 7 43.5
t20 27.5q14 10 32 15t41 5h6h6h3.5h2.5q2 -1 3.5 -1h2.5q8 -1 16.5 -2.5t15.5 -4.5q8 -3 13 -9t8 -14l4 2v50q0 8 -2 14.5t-7 10.5q-4 4 -11.5 6t-18.5 2q-10 0 -16.5 -1.5t-11.5 -3.5q-4 -3 -6.5 -9t-3.5 -16v2v0zM269 475q0 -13 3.5 -19.5t10.5 -8.5l16 -2t17 -1
q8 0 15.5 1t13.5 3t9 8.5t3 16.5q0 9 -3.5 15t-9.5 8q-7 2 -14 3.5t-15 1.5h-2h-2h-1.5h-1.5q-8 0 -15 -1.5t-13 -3.5q-6 -3 -8.5 -8.5t-2.5 -14.5v2v0z" />
    <glyph glyph-name="ordmasculine" unicode="&#xba;" horiz-adv-x="640" 
d="M154 334h332v-68h-332v68v0zM180 543q0 40 8.5 65.5t24.5 36.5q17 11 44 17t65 6q48 0 77.5 -8t39.5 -24q11 -16 16 -48.5t5 -81.5v-2.5v-3.5v-1.5v-0.5v-1.5v-1.5q-1 -10 -2 -20.5t-3 -21.5q-2 -10 -6.5 -19.5t-10.5 -17.5q-7 -9 -16 -15t-19 -9t-20.5 -5t-21.5 -2
q-2 0 -4 -0.5t-4 -0.5h-5h-4h-8h-8q-37 0 -65 6t-46 19q-19 12 -28 38.5t-9 66.5v29v0zM274 529v-16q0 -14 1.5 -25t5.5 -20q3 -9 13.5 -13.5t27.5 -4.5q14 0 23 3.5t13 10.5q5 8 7 18t2 23v4.5v4.5v2t1 3v2.5v2.5v4v5v4.5v4.5q0 13 -2 23.5t-5 17.5q-3 8 -12.5 12t-26.5 4
h-2h-1h-2h-2h-2.5h-3.5q-3 -1 -6 -1.5t-6 -1.5t-5 -1.5t-4 -2.5q-4 -3 -6 -7t-4 -9l-2 -10t-1 -10q-1 -2 -1 -4v-4v-4v-4v-11v0z" />
    <glyph glyph-name="Omega" unicode="&#x3a9;" 
 />
    <glyph glyph-name="ae" unicode="&#xe6;" horiz-adv-x="806" 
d="M775 210h-295v-16q0 -26 3 -43.5t10 -28.5q6 -10 22.5 -15t43.5 -5q18 0 31.5 2t20.5 6q8 4 13 15.5t6 30.5l145 2v-3.5t1 -2.5v-2v-2v-2v-1v-2v-2q0 -47 -16 -77t-48 -44q-31 -13 -67 -19t-76 -6h-6.5h-7.5q-3 1 -6.5 1h-7.5h-7.5h-7.5q-4 1 -7.5 1h-7.5q-19 1 -36.5 5
t-34.5 11t-29 19.5t-18 31.5l-5 2q-7 -20 -19.5 -33.5t-29.5 -20.5t-35 -11t-37 -5h-11.5h-10.5h-6t-5 -1h-5.5h-5.5q-46 0 -81 5.5t-59 17.5q-25 12 -37 43.5t-12 82.5q0 44 12.5 72.5t37.5 41.5t56.5 19.5t69.5 6.5h8.5h8.5h4.5h5.5q2 -1 4.5 -1h4.5q13 -1 25 -4t24 -8
q11 -4 19 -13.5t12 -23.5l7 2v74q0 17 -3.5 30t-9.5 20q-7 7 -20 10.5t-33 3.5q-15 0 -26 -2t-19 -7q-7 -4 -11.5 -14.5t-5.5 -26.5l-154 2v27q0 34 11.5 56.5t35.5 33.5q23 11 49.5 17.5t54.5 7.5h4.5t5.5 1h4.5h4.5h10h10h10.5h11.5h6h6q3 -1 6 -1h6q11 -1 22.5 -2
t23.5 -3q11 -2 22 -6t21 -9q7 -4 12.5 -8.5t9.5 -9.5t7 -11t6 -13l5 2q5 14 14 24.5t23 17.5q14 6 28.5 10.5t30.5 6.5h7.5t7.5 1h6.5h7.5h7.5t6.5 1h7h6q64 0 106 -13.5t62 -40.5t30 -70.5t10 -103.5v-4v-4v-5v-4v-4v-4q-1 -2 -1 -4v-4v2v0zM187 149q0 -20 5 -31t15 -16
q10 -4 22.5 -6t28.5 -2h2h2h3.5h2.5q12 0 24 1.5t22 5.5q11 3 16.5 12.5t5.5 25.5t-5 26.5t-14 14.5q-9 5 -20.5 7t-25.5 2l-14 2q-1 -2 -2.5 -2h-3.5h-2h-2q-11 -1 -21.5 -3t-19.5 -5q-9 -4 -14 -12t-5 -22v2v0zM632 292q-1 20 -4.5 34t-11.5 21q-7 7 -22 10.5t-37 3.5
q-18 0 -31.5 -2.5t-23.5 -7.5q-10 -4 -15.5 -17t-5.5 -33v-9h151v0z" />
    <glyph glyph-name="oslash" unicode="&#xf8;" horiz-adv-x="527" 
d="M466 409l67 48v-76l-43 -31q2 -11 2.5 -20.5t1.5 -18.5v-9t1 -9q0 -5 0.5 -9.5t0.5 -9.5v-10t1 -9v-9.5v-9.5v-18v-18q0 -59 -12 -99.5t-36 -62.5t-65.5 -32t-100.5 -10h-25h-8h-7q-4 1 -8 1h-8h-7.5h-7.5q-4 1 -7.5 1h-7.5q-19 1 -38.5 4t-37.5 9t-32.5 17.5t-25.5 27.5
l-70 -49v74l46 33q-1 1 -2 4l-2 6t-1.5 6.5t-0.5 7.5q-1 10 -2 19.5t-1 19.5v20v20q0 71 10 120t29 77q20 28 67 42t121 14l20 2q6 -2 12 -2h12h6h7q3 -1 6 -1h6q20 -1 39.5 -5t38.5 -10t34.5 -18t27.5 -29v2v0zM343 252l-151 -109q2 -9 6.5 -15t11.5 -10t14.5 -6t15.5 -3
q2 0 3.5 -0.5t3.5 -0.5q1 -1 3 -1h3h6h6q23 0 39 5.5t23 16.5q8 11 11.5 28.5t4.5 39.5v55v0zM336 322q-4 11 -10.5 18.5t-17.5 10.5q-10 2 -21 3.5t-23 1.5q-28 0 -45 -7.5t-23 -22.5q-7 -15 -10 -34.5t-3 -44.5v-36l153 111v0z" />
    <glyph glyph-name="questiondown" unicode="&#xbf;" horiz-adv-x="538" 
d="M215 231h154q0 -32 -2.5 -57t-7.5 -43q-4 -18 -19 -34t-41 -30q-2 -1 -4.5 -2.5t-5.5 -3.5q-1 -1 -2.5 -1.5t-2.5 -1.5l-3 -1.5l-3 -1.5q-1 -1 -2 -1.5l-1 -0.5q-1 -1 -2 -1.5t-2 -0.5q-2 -1 -3.5 -1.5t-3.5 -0.5q-1 -1 -1.5 -1h-0.5h-0.5h-0.5v-1v0q-13 -6 -25 -12
t-23 -14q-10 -7 -15.5 -18t-5.5 -27q0 -21 5.5 -34t16.5 -17q11 -5 25 -7t31 -2q18 0 31.5 3.5t22.5 9.5q9 7 14 19.5t5 31.5v1.5v1.5v2v2q-1 1 -1 1.5v1.5v2v2h152v-3.5v-3.5v-3v-3v-3.5v-3.5q-1 -1 -1 -3v-4v-0.5v-1.5v-0.5v-1.5v-3.5v-2.5q-1 -2 -1 -3.5v-2.5v-6.5v-7.5
q0 -6 -1 -12t-2 -13l-2 -12t-3 -12q-4 -12 -10.5 -23t-16.5 -20q-13 -12 -28 -20.5t-32 -13.5t-34.5 -9t-34.5 -5h-7.5t-6.5 -1h-7.5h-6.5h-7.5t-6.5 -1h-7h-6q-47 0 -87.5 6.5t-75.5 19.5q-34 13 -51.5 47.5t-17.5 90.5q0 44 7 75.5t20 47.5q14 17 29 28.5t31 18.5
q2 1 4.5 2t5.5 2q2 1 4.5 2t5.5 2q14 5 25.5 12t21.5 16q10 8 15 24t5 40v2v0zM221 313v153h144v-153h-144v0z" />
    <glyph glyph-name="exclamdown" unicode="&#xa1;" horiz-adv-x="310" 
d="M80 -200l9 405h152l7 -405h-168v0zM93 314v153h144v-153h-144v0z" />
    <glyph glyph-name="logicalnot" unicode="&#xac;" 
 />
    <glyph glyph-name="radical" unicode="&#x221a;" 
 />
    <glyph glyph-name="florin" unicode="&#x192;" horiz-adv-x="640" 
d="M412 390l-63 -357q-1 -5 -1.5 -9.5t-1.5 -8.5t-1.5 -8t-1.5 -7q-6 -30 -14 -53.5t-19 -39.5q-11 -17 -36.5 -27.5t-65.5 -14.5q-19 -2 -37.5 -3.5t-36.5 -1.5h-18t-18 -1h-19h-18l20 114q5 -1 9.5 -1.5t8.5 -0.5q5 0 9.5 -0.5t8.5 -1.5q20 0 32.5 4.5t19.5 12.5t12 20.5
t9 30.5l62 353h-67l19 110h67q2 7 3.5 15.5t2.5 16.5q2 8 3.5 16.5t2.5 15.5q10 50 24.5 84.5t33.5 52.5t60.5 27.5t105.5 9.5l58 2l-20 -113q-2 -1 -4.5 -1t-4.5 1h-4.5h-4.5h-4.5t-4.5 1h-4.5h-4.5q-22 0 -36 -7.5t-20 -21.5q-6 -15 -10 -31t-6 -33q-1 -1 -1 -2.5v-3.5
v-1.5v-0.5q-1 -1 -1 -1.5v-1.5v-4v-3q-1 -2 -1 -3.5v-3.5q-1 -3 -1.5 -6t-0.5 -6l90 2l-19 -110h-91v0z" />
    <glyph glyph-name="approxequal" unicode="&#x2248;" 
 />
    <glyph glyph-name="Delta" unicode="&#x2206;" 
 />
    <glyph glyph-name="guillemotleft" unicode="&#xab;" horiz-adv-x="500" 
d="M155 454l100 -54l-85 -161l85 -151l-95 -59l-119 210l114 215v0zM360 460l100 -54l-85 -161l85 -151l-95 -59l-119 210l114 215v0z" />
    <glyph glyph-name="guillemotright" unicode="&#xbb;" horiz-adv-x="500" 
d="M346 454l114 -215l-119 -210l-95 59l85 151l-85 161l100 54v0zM141 460l114 -215l-119 -210l-95 59l85 151l-85 161l100 54v0z" />
    <glyph glyph-name="ellipsis" unicode="&#x2026;" horiz-adv-x="672" 
d="M184 153v-153h-144v153h144v0zM408 153v-153h-144v153h144v0zM632 153v-153h-144v153h144v0z" />
    <glyph glyph-name="Agrave" unicode="&#xc0;" horiz-adv-x="660" 
d="M450 115h-239l-32 -115h-186l200 667h271l203 -667h-182l-35 115v0zM415 244l-84 290l-82 -290h166v0zM262 855l181 -107l-25 -55l-201 64l45 98v0z" />
    <glyph glyph-name="Atilde" unicode="&#xc3;" horiz-adv-x="660" 
d="M450 115h-239l-32 -115h-186l200 667h271l203 -667h-182l-35 115v0zM415 244l-84 290l-82 -290h166v0zM451 830l72 -37q-9 -19 -20 -34.5t-24 -28.5t-30.5 -19.5t-39.5 -6.5q-11 0 -21.5 2.5t-20.5 6.5q-10 5 -19 10t-18 11q-4 2 -8 4.5t-8 5.5q-4 2 -8 4.5t-8 4.5
q-5 2 -9.5 4.5t-9.5 3.5q-2 1 -4.5 1.5t-4.5 0.5q-3 1 -5.5 1h-4.5q-9 0 -16 -3t-13 -9t-11 -12t-9 -12v-0.5v-0.5l-1 -1v0v0v0v-1v0l-73 41q1 0 1.5 0.5l1.5 1.5q0 1 0.5 2t1.5 2q2 2 3.5 4t2.5 4q9 13 19.5 25t22.5 22q12 11 27 16.5t32 5.5q12 0 23.5 -2.5t21.5 -7.5
q11 -4 20.5 -9.5t18.5 -11.5q5 -3 9.5 -6t8.5 -6q5 -3 9.5 -5.5t8.5 -4.5t8 -3.5t8 -3.5q5 -1 9.5 -1.5t8.5 -0.5q8 0 15 2.5t12 7.5t9 11t8 13q0 1 0.5 1.5l1.5 1.5q0 1 0.5 2t1.5 2v2v0z" />
    <glyph glyph-name="Otilde" unicode="&#xd5;" horiz-adv-x="682" 
d="M33 329v18v20v10v11q0 5 0.5 10t0.5 10q0 10 1 20l2 20q0 5 0.5 10t1.5 11q1 5 1.5 10t1.5 10q9 56 34.5 92.5t67.5 52.5q41 17 86 25.5t93 9.5h4.5h5.5h4.5h5.5q86 0 147 -15t95 -44q35 -29 52 -89t17 -150q0 -93 -10.5 -163t-30.5 -118t-86 -71.5t-179 -23.5h-8h-8
q-5 1 -9 1h-8h-8.5h-8.5q-5 1 -9 1h-8q-38 1 -74 8.5t-69 21.5q-34 14 -56.5 42t-34.5 70q-5 17 -8 34t-4 35q-1 17 -1.5 34.5t-0.5 35.5v51v0zM216 332v-40q0 -37 4 -64t11 -45q8 -19 32 -28t66 -9q46 0 75 7t41 22t18.5 43.5t6.5 71.5v12v12v12t1 13v12v12v12v12
q0 33 -5 57.5t-14 40.5q-10 15 -32.5 23t-58.5 8q-52 0 -83 -7t-41 -21t-15 -52.5t-6 -101.5v-1.5v-0.5v-1.5v-0.5v2v0zM464 830l72 -37q-9 -19 -20 -34.5t-24 -28.5t-30.5 -19.5t-39.5 -6.5q-11 0 -21.5 2.5t-20.5 6.5q-10 5 -19 10t-18 11q-4 2 -8 4.5t-8 5.5q-4 2 -8 4.5
t-8 4.5q-5 2 -9.5 4.5t-9.5 3.5q-2 1 -4.5 1.5t-4.5 0.5q-3 1 -5.5 1h-4.5q-9 0 -16 -3t-13 -9t-11 -12t-9 -12v-0.5v-0.5l-1 -1v0v0v0v-1v0l-73 41q1 0 1.5 0.5l1.5 1.5q0 1 0.5 2t1.5 2q2 2 3.5 4t2.5 4q9 13 19.5 25t22.5 22q12 11 27 16.5t32 5.5q12 0 23.5 -2.5
t21.5 -7.5q11 -4 20.5 -9.5t18.5 -11.5q5 -3 9.5 -6t8.5 -6q5 -3 9.5 -5.5t8.5 -4.5t8 -3.5t8 -3.5q5 -1 9.5 -1.5t8.5 -0.5q8 0 15 2.5t12 7.5t9 11t8 13q0 1 0.5 1.5l1.5 1.5q0 1 0.5 2t1.5 2v2v0z" />
    <glyph glyph-name="OE" unicode="&#x152;" horiz-adv-x="985" 
d="M652 520v-121h280v-123h-280v-130h305v-146h-473l6 74h-6q-16 -27 -33.5 -43.5t-37.5 -23.5q-20 -6 -44.5 -9t-53.5 -3q-69 0 -120 12t-86 37q-34 25 -51 74.5t-17 123.5v10v11q-1 5 -1 10v10v21.5v20.5q0 5 -0.5 10t-0.5 11v10v10v21.5v20.5q0 69 14.5 118.5t44.5 80.5
t79.5 46.5t119.5 15.5h9.5h8.5h4.5h4.5q2 -1 4.5 -1h4.5q23 -1 45.5 -5.5t43.5 -12.5t36.5 -24.5t25.5 -40.5l6 2l-6 79h467v-146h-299v0zM224 268q0 -43 6 -69t18 -36t38 -15t66 -5q37 0 62 6t38 19q13 12 19.5 36.5t6.5 60.5v16.5v16.5v16t1 17v16v16v16.5v16.5
q0 33 -5.5 56.5t-16.5 37.5t-33.5 21.5t-56.5 7.5l-25 2q-31 -2 -53.5 -6t-36.5 -12t-21 -29t-7 -55v-151v0z" />
    <glyph glyph-name="oe" unicode="&#x153;" horiz-adv-x="817" 
d="M787 210h-297v-19q0 -25 3 -41.5t9 -27.5q6 -10 22.5 -15.5t42.5 -5.5q13 0 25 1t22 4q11 3 17 12.5t7 25.5v0.5v1.5v1.5v1.5v0.5v1.5v0.5t1 1.5v0.5v0.5l148 2v-5v-4v-2v-1v-2v-2q0 -12 -1 -23.5t-3 -22.5q-2 -12 -6.5 -22.5t-12.5 -20.5q-11 -15 -25 -25t-31 -16
t-34.5 -8.5t-34.5 -3.5h-8t-8 -1h-8h-8h-8t-8 -1h-7.5h-7.5h-10.5h-10.5h-6h-5q-3 1 -5.5 1h-5.5q-18 1 -35 4t-33 9t-27.5 19.5t-17.5 32.5l-5 2q-15 -26 -31 -41t-33 -20q-18 -3 -40.5 -5t-49.5 -2q-58 0 -100.5 9t-71.5 28q-28 19 -42.5 60t-14.5 104v58v11.5v13.5v14
t1 14q0 5 0.5 10t1.5 11q1 5 1.5 10t1.5 10q2 11 4.5 20t6.5 17q9 20 24 34.5t34 23.5q20 9 40 14.5t41 8.5q7 1 14 1.5t14 0.5h6.5t7.5 1h6.5h6.5h10.5h11.5h6h6q3 -1 6 -1h6q19 -1 37 -4.5t36 -9.5q17 -6 30.5 -18t23.5 -30l4 2q10 18 23.5 30t31.5 18q18 5 37 8.5t38 4.5
h3h3h2.5h2.5h6h6q63 0 105.5 -13t64.5 -39t33 -69t11 -103v-36v0zM185 245v-62q0 -23 4.5 -38t13.5 -23q9 -7 23.5 -11t35.5 -4q28 0 45 5.5t24 17.5q6 12 9.5 28t3.5 35v94q-1 22 -6 36.5t-14 20.5q-10 6 -25.5 9t-36.5 3q-27 0 -43.5 -5t-22.5 -16q-6 -10 -8.5 -25
t-2.5 -35v-30v0zM643 292q-1 22 -4.5 36.5t-11.5 21.5q-7 7 -23 10.5t-40 3.5q-18 0 -31.5 -3t-22.5 -9t-14 -18.5t-6 -32.5v-1.5v-1.5v-1.5v-1.5q-1 -1 -1 -1.5v-1.5v-1.5v-0.5l154 2v0z" />
    <glyph glyph-name="endash" 
 />
    <glyph glyph-name="emdash" unicode="&#x2014;" horiz-adv-x="717" 
d="M10 319h697v-151h-697v151v0z" />
    <glyph glyph-name="quotedblleft" unicode="&#x201c;" horiz-adv-x="435" 
d="M40 403v135q0 40 7.5 68t22.5 43q15 14 43 21.5t68 7.5h1.5h1.5h1.5h1.5q1 -1 1.5 -1h1.5h1.5h1.5v-65q-15 -2 -27 -4t-20 -6t-12 -14.5t-4 -27.5v-7h54v-150h-144v0zM240 403v135q0 41 7.5 69t22.5 42t43 21.5t68 7.5h1.5h1.5h1.5h1.5q1 -1 1.5 -1h1.5h1.5h1.5v-65
q-15 -2 -27 -4t-20 -6t-12 -14.5t-4 -27.5v-7h54v-150h-144v0z" />
    <glyph glyph-name="quotedblright" unicode="&#x201d;" horiz-adv-x="435" 
d="M195 667v-136q0 -41 -6.5 -69t-20.5 -43q-13 -16 -41.5 -23.5t-72.5 -7.5h-2.5h-3.5h-2.5t-3.5 1v69q2 -1 4.5 -1h4.5q10 0 19 1.5t16 5.5q9 4 14 13.5t5 25.5v3.5v2.5v3.5t1 2.5l-55 2v150h144v0zM395 667v-136q0 -37 -5 -63.5t-16 -44.5q-10 -18 -40 -26.5t-80 -8.5
h-2.5h-3.5h-2.5t-3.5 1v69q2 -1 4.5 -1h4.5q10 0 19 1.5t16 5.5q9 4 14 13.5t5 25.5v3.5v2.5v3.5t1 2.5l-55 2v150h144v0z" />
    <glyph glyph-name="quoteleft" unicode="&#x2018;" horiz-adv-x="235" 
d="M40 403v135q0 40 7.5 68t22.5 43q15 14 43 21.5t68 7.5h1.5h1.5h1.5h1.5q1 -1 1.5 -1h1.5h1.5h1.5v-65q-15 -2 -27 -4t-20 -6t-12 -14.5t-4 -27.5v-7h54v-150h-144v0z" />
    <glyph glyph-name="quoteright" unicode="&#x2019;" horiz-adv-x="235" 
d="M195 667v-136q0 -41 -6.5 -69t-20.5 -43q-13 -16 -41.5 -23.5t-72.5 -7.5h-2.5h-3.5h-2.5t-3.5 1v69q2 -1 4.5 -1h4.5q10 0 19 1.5t16 5.5q9 4 14 13.5t5 25.5v3.5v2.5v3.5t1 2.5l-55 2v150h144v0z" />
    <glyph glyph-name="divide" unicode="&#xf7;" 
 />
    <glyph glyph-name="lozenge" unicode="&#x25ca;" 
 />
    <glyph glyph-name="ydieresis" unicode="&#xff;" horiz-adv-x="474" 
d="M480 467l-115 -498q-9 -43 -24 -76t-36 -55q-22 -23 -55.5 -34t-80.5 -11h-7.5h-7.5q-4 1 -7.5 1h-7.5q-7 0 -14.5 0.5t-15.5 1.5v104h1.5h1.5h0.5t1.5 -1h0.5h0.5h1.5h1.5h0.5t1.5 -1h0.5h0.5q27 0 45 6.5t27 19.5t14.5 32t8.5 44h-84l-138 467h160l93 -379l77 379h156
v0zM193 623v-92h-97v92h97v0zM379 623v-92h-97v92h97v0z" />
    <glyph glyph-name="Ydieresis" unicode="&#x178;" horiz-adv-x="655" 
d="M656 667l-243 -436v-231h-179v231l-236 436h204l119 -257h6l123 257h206v0zM283 819v-92h-97v92h97v0zM469 819v-92h-97v92h97v0z" />
    <glyph glyph-name="fraction" unicode="&#x2215;" horiz-adv-x="191" 
d="M341 667l-393 -667h-98l393 667h98v0z" />
    <glyph glyph-name="currency" unicode="&#xa4;" horiz-adv-x="719" 
d="M38 108l102 102q-7 11 -13 24.5t-11 27.5q-4 14 -7 29t-4 30q-1 2 -1 4v4v4.5v4.5q0 17 2.5 34.5t8.5 33.5q6 17 13 32.5t15 30.5l-105 106l85 85l107 -106q3 0 6 1.5t6 2.5l3 1.5l3 1.5q1 1 2.5 1.5t2.5 1.5q13 5 26.5 9.5t26.5 7.5q14 3 28 5t30 2q17 0 32.5 -2.5
t30.5 -7.5t30 -11t30 -14l105 106l85 -84l-103 -102q9 -17 16.5 -33.5t12.5 -33.5q5 -16 8 -33.5t3 -35.5q0 -17 -2.5 -33.5t-7.5 -32.5q-4 -16 -10.5 -32t-14.5 -31l101 -100l-83 -85l-102 101q-16 -11 -32.5 -19t-33.5 -13t-35 -7.5t-37 -2.5q-18 0 -35 3t-34 9
q-16 6 -32.5 13t-31.5 15l-102 -98l-84 84v0zM360 452q-23 -2 -42.5 -10t-36.5 -25q-16 -16 -24.5 -36t-8.5 -43t8.5 -43t24.5 -37q17 -16 36.5 -24.5t42.5 -8.5t42.5 8.5t35.5 24.5q17 17 25 37t8 43t-8 43t-25 36q-16 17 -35.5 25t-42.5 8v2v0z" />
    <glyph glyph-name="guilsinglleft" unicode="&#x2039;" horiz-adv-x="294" 
d="M153 460l100 -54l-85 -161l85 -151l-95 -59l-119 210l114 215v0z" />
    <glyph glyph-name="guilsinglright" unicode="&#x203a;" horiz-adv-x="294" 
d="M141 460l114 -215l-119 -210l-95 59l85 151l-85 161l100 54v0z" />
    <glyph glyph-name="fi" unicode="&#xf001;" 
 />
    <glyph glyph-name="fl" unicode="&#xf002;" 
 />
    <glyph glyph-name="daggerdbl" unicode="&#x2021;" horiz-adv-x="640" 
d="M398 667v-204h173v-113h-173v-237h173v-113h-173v-213h-156v213h-173v113h173v237h-173v113h173v204h156v0z" />
    <glyph glyph-name="periodcentered" unicode="&#x2219;" horiz-adv-x="640" 
d="M392 320v-153h-144v153h144v0z" />
    <glyph glyph-name="quotesinglbase" unicode="&#x201a;" 
 />
    <glyph glyph-name="quotedblbase" unicode="&#x201e;" horiz-adv-x="435" 
d="M195 150v-136q0 -41 -7.5 -68.5t-21.5 -42.5t-42 -22.5t-70 -7.5h-2.5h-3.5h-1.5h-1.5q-1 1 -1.5 1h-1.5v67q18 0 29.5 1.5t15.5 4.5q5 3 8 8.5t5 14.5q0 3 0.5 6.5t1.5 7.5t2 7.5t2 8.5h-55v150h144v0zM395 150v-136q0 -40 -7.5 -67.5t-21.5 -42.5t-42 -23t-70 -8h-2.5
h-3.5h-1.5h-1.5q-1 1 -1.5 1h-1.5v67q20 0 31.5 1.5t15.5 4.5q5 3 8 9t4 15q0 3 0.5 6t1.5 7q0 4 1 7.5t2 8.5h-55v150h144v0z" />
    <glyph glyph-name="perthousand" unicode="&#x2030;" horiz-adv-x="1146" 
d="M503 178v8.5v9.5v10t1 10q2 20 6.5 39t13.5 36q8 17 24.5 27t40.5 13h6.5t7.5 1h6.5h6.5h14h14q36 0 62.5 -6t42.5 -18q17 -12 25.5 -37.5t8.5 -63.5v-6.5v-6.5q-1 -4 -1 -7v-6v-13.5v-12.5v-6.5v-6.5q-1 -4 -1 -7v-6v-13.5v-12.5q-3 -34 -13 -56t-27 -31q-18 -9 -42 -13
t-55 -4q-36 0 -62.5 5.5t-44.5 18.5q-18 12 -26.5 39t-8.5 67v6v6v6t1 6v3v3v2.5v2.5v6v6v2v0zM591 173v-56q0 -16 2.5 -25.5t8.5 -13.5t16.5 -5.5t25.5 -1.5q17 0 27.5 3t14.5 9q3 6 5 17.5t3 29.5v10t1 10v9v10v19.5v19.5q0 15 -2.5 25.5t-7.5 14.5q-5 5 -14 7.5t-22 2.5
l-29 2q-9 -3 -15 -7.5t-9 -11.5t-4.5 -13.5t-1.5 -14.5v-1.5v-0.5v-1.5v-1.5v-2v-2v-4v-4v-4t1 -4v-5v-4v-4v-4v2v0zM843 178v8.5v9.5v10t1 10q2 20 6.5 39t12.5 36t24.5 27t41.5 13h6.5t7.5 1h6.5h6.5h14h14q36 0 63 -6.5t43 -18.5q17 -12 25 -37t8 -63v-6.5v-6.5
q-1 -4 -1 -7v-6v-13.5v-12.5v-6.5v-6.5q-1 -4 -1 -7v-6v-13.5v-12.5q-3 -37 -14 -59.5t-31 -30.5q-19 -7 -43.5 -10.5t-54.5 -3.5q-34 0 -59.5 5t-42.5 15q-17 11 -25.5 38.5t-8.5 71.5v6v6v6t1 6v3v3v2.5v2.5v6v6v2v0zM930 173v-9v-8v-7.5t1 -6.5v-8v-7v-7.5v-7.5
q0 -13 3 -22t9 -12q6 -4 16 -5.5t25 -1.5q17 0 27.5 3t14.5 9q3 6 5 17.5t3 29.5v10.5v10.5v5.5t1 5.5v5v6v10v11v10.5v10.5q0 13 -3 21.5t-8 12.5q-5 5 -14 7t-21 2l-29 2q-7 -2 -12 -5t-8 -6q-3 -4 -5 -9t-3 -11q0 -2 -0.5 -4t-0.5 -4q-1 -3 -1 -5v-4v-8.5v-9.5v-21v0z
M646 667l-393 -667h-80l393 667h80v0zM36 511v8.5v9.5v10.5t1 10.5q2 20 6.5 39t12.5 36t24.5 27t41.5 12h3.5t3.5 1h3h4h3.5t3.5 1h3h4h6h7h6.5h7.5q35 0 61.5 -6t43.5 -17q17 -12 25.5 -38.5t8.5 -67.5v-13.5v-12.5v-12v-12q-1 -7 -1 -13.5v-12.5v-6v-6v-7v-6
q-3 -34 -13 -56.5t-28 -31.5t-42 -13.5t-55 -4.5q-37 0 -64 7t-44 21t-25.5 40.5t-8.5 64.5v6v6v3v3q0 1 0.5 2.5t0.5 2.5v3v3v2.5v2.5v6v6v2v0zM124 506v-31q0 -23 2 -37.5t6 -20.5t15 -9t30 -3q17 0 27.5 3t14.5 9q3 6 5 17.5t3 28.5v10t1 10v9v10v19.5v19.5q0 14 -2 23.5
t-7 15.5q-4 6 -13.5 9t-23.5 3h-4h-4h-2.5h-3.5q-2 -1 -4 -1h-4h-2h-1h-2h-2q-7 -1 -11.5 -3t-7.5 -6t-5 -9t-3 -11q0 -2 -0.5 -4t-0.5 -4q-1 -3 -1 -5v-4v-8.5v-9.5v-21v0z" />
    <glyph glyph-name="Acircumflex" unicode="&#xc2;" horiz-adv-x="660" 
d="M450 115h-239l-32 -115h-186l200 667h271l203 -667h-182l-35 115v0zM415 244l-84 290l-82 -290h166v0zM328 845l163 -97l-22 -51l-141 51l-135 -51l-24 51l159 97v0z" />
    <glyph glyph-name="Ecircumflex" unicode="&#xca;" horiz-adv-x="580" 
d="M233 520v-120h284v-124h-284v-129h310v-147h-489v667h483v-147h-304v0zM288 845l163 -97l-22 -51l-141 51l-135 -51l-24 51l159 97v0z" />
    <glyph glyph-name="Aacute" unicode="&#xc1;" horiz-adv-x="660" 
d="M450 115h-239l-32 -115h-186l200 667h271l203 -667h-182l-35 115v0zM415 244l-84 290l-82 -290h166v0zM398 855l45 -98l-201 -64l-25 55l181 107v0z" />
    <glyph glyph-name="Edieresis" unicode="&#xcb;" horiz-adv-x="580" 
d="M233 520v-120h284v-124h-284v-129h310v-147h-489v667h483v-147h-304v0zM246 819v-92h-97v92h97v0zM432 819v-92h-97v92h97v0z" />
    <glyph glyph-name="Egrave" unicode="&#xc8;" horiz-adv-x="580" 
d="M233 520v-120h284v-124h-284v-129h310v-147h-489v667h483v-147h-304v0zM222 855l181 -107l-25 -55l-201 64l45 98v0z" />
    <glyph glyph-name="Iacute" unicode="&#xcd;" horiz-adv-x="289" 
d="M233 667v-667h-179v667h179v0zM212 855l45 -98l-201 -64l-25 55l181 107v0z" />
    <glyph glyph-name="Icircumflex" unicode="&#xce;" horiz-adv-x="289" 
d="M233 667v-667h-179v667h179v0zM142 845l163 -97l-22 -51l-141 51l-135 -51l-24 51l159 97v0z" />
    <glyph glyph-name="Idieresis" unicode="&#xcf;" horiz-adv-x="287" 
d="M233 667v-667h-179v667h179v0zM99 819v-92h-97v92h97v0zM285 819v-92h-97v92h97v0z" />
    <glyph glyph-name="Igrave" unicode="&#xcc;" horiz-adv-x="289" 
d="M233 667v-667h-179v667h179v0zM76 855l181 -107l-25 -55l-201 64l45 98v0z" />
    <glyph glyph-name="Oacute" unicode="&#xd3;" horiz-adv-x="682" 
d="M33 329v18v20v10v11q0 5 0.5 10t0.5 10q0 10 1 20l2 20q0 5 0.5 10t1.5 11q1 5 1.5 10t1.5 10q9 56 34.5 92.5t67.5 52.5q41 17 86 25.5t93 9.5h4.5h5.5h4.5h5.5q86 0 147 -15t95 -44q35 -29 52 -89t17 -150q0 -93 -10.5 -163t-30.5 -118t-86 -71.5t-179 -23.5h-8h-8
q-5 1 -9 1h-8h-8.5h-8.5q-5 1 -9 1h-8q-38 1 -74 8.5t-69 21.5q-34 14 -56.5 42t-34.5 70q-5 17 -8 34t-4 35q-1 17 -1.5 34.5t-0.5 35.5v51v0zM216 332v-40q0 -37 4 -64t11 -45q8 -19 32 -28t66 -9q46 0 75 7t41 22t18.5 43.5t6.5 71.5v12v12v12t1 13v12v12v12v12
q0 33 -5 57.5t-14 40.5q-10 15 -32.5 23t-58.5 8q-52 0 -83 -7t-41 -21t-15 -52.5t-6 -101.5v-1.5v-0.5v-1.5v-0.5v2v0zM411 854l45 -98l-201 -64l-25 55l181 107v0z" />
    <glyph glyph-name="Ocircumflex" unicode="&#xd4;" horiz-adv-x="682" 
d="M33 329v18v20v10v11q0 5 0.5 10t0.5 10q0 10 1 20l2 20q0 5 0.5 10t1.5 11q1 5 1.5 10t1.5 10q9 56 34.5 92.5t67.5 52.5q41 17 86 25.5t93 9.5h4.5h5.5h4.5h5.5q86 0 147 -15t95 -44q35 -29 52 -89t17 -150q0 -93 -10.5 -163t-30.5 -118t-86 -71.5t-179 -23.5h-8h-8
q-5 1 -9 1h-8h-8.5h-8.5q-5 1 -9 1h-8q-38 1 -74 8.5t-69 21.5q-34 14 -56.5 42t-34.5 70q-5 17 -8 34t-4 35q-1 17 -1.5 34.5t-0.5 35.5v51v0zM216 332v-40q0 -37 4 -64t11 -45q8 -19 32 -28t66 -9q46 0 75 7t41 22t18.5 43.5t6.5 71.5v12v12v12t1 13v12v12v12v12
q0 33 -5 57.5t-14 40.5q-10 15 -32.5 23t-58.5 8q-52 0 -83 -7t-41 -21t-15 -52.5t-6 -101.5v-1.5v-0.5v-1.5v-0.5v2v0zM341 845l163 -97l-22 -51l-141 51l-135 -51l-24 51l159 97v0z" />
    <glyph glyph-name="apple" unicode="&#xf000;" 
 />
    <glyph glyph-name="Ograve" unicode="&#xd2;" 
 />
    <glyph glyph-name="Uacute" unicode="&#xda;" horiz-adv-x="688" 
d="M455 667h179v-421v-7.5v-6.5q-1 -3 -1 -6v-6v-6v-6q-1 -3 -1 -5.5v-5.5q-1 -2 -1 -4v-4v-2v-2q-1 -1 -1 -2v-2v-4v-4q-1 -2 -1 -4v-4v-4v-4q-1 -2 -1 -4v-4q-7 -50 -29.5 -81.5t-59.5 -45.5q-37 -13 -77 -19.5t-83 -6.5h-24q-72 0 -128 7.5t-95 23.5q-39 17 -58.5 67.5
t-19.5 135.5v437h179v-435q0 -31 7 -49t20 -24q14 -6 34 -9t45 -3q32 0 54 3t35 10q14 6 20.5 26t6.5 54v427v0zM412 855l45 -98l-201 -64l-25 55l181 107v0z" />
    <glyph glyph-name="Ucircumflex" unicode="&#xdb;" horiz-adv-x="688" 
d="M455 667h179v-421v-7.5v-6.5q-1 -3 -1 -6v-6v-6v-6q-1 -3 -1 -5.5v-5.5q-1 -2 -1 -4v-4v-2v-2q-1 -1 -1 -2v-2v-4v-4q-1 -2 -1 -4v-4v-4v-4q-1 -2 -1 -4v-4q-7 -50 -29.5 -81.5t-59.5 -45.5q-37 -13 -77 -19.5t-83 -6.5h-24q-72 0 -128 7.5t-95 23.5q-39 17 -58.5 67.5
t-19.5 135.5v437h179v-435q0 -31 7 -49t20 -24q14 -6 34 -9t45 -3q32 0 54 3t35 10q14 6 20.5 26t6.5 54v427v0zM342 846l163 -97l-22 -51l-141 51l-135 -51l-24 51l159 97v0z" />
    <glyph glyph-name="Ugrave" unicode="&#xd9;" horiz-adv-x="688" 
d="M455 667h179v-421v-7.5v-6.5q-1 -3 -1 -6v-6v-6v-6q-1 -3 -1 -5.5v-5.5q-1 -2 -1 -4v-4v-2v-2q-1 -1 -1 -2v-2v-4v-4q-1 -2 -1 -4v-4v-4v-4q-1 -2 -1 -4v-4q-7 -50 -29.5 -81.5t-59.5 -45.5q-37 -13 -77 -19.5t-83 -6.5h-24q-72 0 -128 7.5t-95 23.5q-39 17 -58.5 67.5
t-19.5 135.5v437h179v-435q0 -31 7 -49t20 -24q14 -6 34 -9t45 -3q32 0 54 3t35 10q14 6 20.5 26t6.5 54v427v0zM276 855l181 -107l-25 -55l-201 64l45 98v0z" />
    <glyph glyph-name="dotlessi" unicode="&#x131;" horiz-adv-x="253" 
d="M202 467v-467h-152v467h152v0z" />
    <glyph glyph-name="circumflex" unicode="&#x2dc;" horiz-adv-x="500" 
d="M248 666l163 -97l-22 -51l-141 51l-135 -51l-24 51l159 97v0z" />
    <glyph glyph-name="tilde" unicode="&#x2c6;" horiz-adv-x="500" 
d="M371 637l72 -37q-9 -19 -20 -34.5t-24 -28.5t-30.5 -19.5t-39.5 -6.5q-11 0 -21.5 2.5t-20.5 6.5q-10 5 -19 10t-18 11q-4 2 -8 4.5t-8 5.5q-4 2 -8 4.5t-8 4.5q-5 2 -9.5 4.5t-9.5 3.5q-2 1 -4.5 1.5t-4.5 0.5q-3 1 -5.5 1h-4.5q-9 0 -16 -3t-13 -9t-11 -12t-9 -12v-0.5
v-0.5l-1 -1v0v0v0v-1v0l-73 41q1 0 1.5 0.5l1.5 1.5q0 1 0.5 2t1.5 2q2 2 3.5 4t2.5 4q9 13 19.5 25t22.5 22q12 11 27 16.5t32 5.5q12 0 23.5 -2.5t21.5 -7.5q11 -4 20.5 -9.5t18.5 -11.5q5 -3 9.5 -6t8.5 -6q5 -3 9.5 -5.5t8.5 -4.5t8 -3.5t8 -3.5q5 -1 9.5 -1.5t8.5 -0.5
q8 0 15 2.5t12 7.5t9 11t8 13q0 1 0.5 1.5l1.5 1.5q0 1 0.5 2t1.5 2v2v0z" />
    <glyph glyph-name="macron" unicode="&#x2c9;" horiz-adv-x="500" 
d="M110 618h279v-83h-279v83v0z" />
    <glyph glyph-name="breve" unicode="&#x2d8;" horiz-adv-x="500" 
d="M92 642h84q3 -17 9 -29t15 -21q8 -9 21 -13.5t29 -4.5q17 0 29 4.5t21 13.5t15 21t10 27l83 2q-5 -32 -18 -58t-33 -46t-47 -30t-60 -10q-31 0 -58 10t-48 31q-22 20 -34.5 45.5t-17.5 55.5v2v0z" />
    <glyph glyph-name="dotaccent" unicode="&#x2d9;" horiz-adv-x="500" 
d="M299 622v-92h-97v92h97v0z" />
    <glyph glyph-name="ring" unicode="&#x2da;" horiz-adv-x="500" 
d="M251 503q0 -1 -0.5 -1h-1.5h-1.5h-0.5q-17 0 -31.5 6t-26.5 18q-13 13 -19 28.5t-6 33.5q0 17 6 32t19 28t28.5 19.5t33.5 6.5q17 0 32 -6.5t28 -19.5t19.5 -28t6.5 -32q0 -18 -6.5 -33.5t-19.5 -28.5t-28 -19t-32 -6v2v0zM251 550q0 -1 0.5 -1h1.5h1.5h0.5q7 0 13 3
t11 8q6 6 9 13t3 15t-3 15t-9 13t-13 9t-15 3t-15 -3t-13 -9t-9 -13t-3 -15t3 -15t9 -13t13 -9t15 -3v2v0z" />
    <glyph glyph-name="cedilla" unicode="&#xb8;" horiz-adv-x="500" 
d="M293 -37l44 -82l-145 -52l-28 52l129 82v0z" />
    <glyph glyph-name="hungarumlaut" unicode="&#x2ba;" horiz-adv-x="500" 
d="M180 714l73 -75l-160 -123l-41 42l128 156v0zM375 714l73 -75l-161 -123l-41 42l129 156v0z" />
    <glyph glyph-name="ogonek" unicode="&#x2db;" horiz-adv-x="500" 
d="M240 0h91q-4 -2 -7.5 -4t-8.5 -5q-4 -3 -8.5 -6t-9.5 -6q-10 -6 -18 -13.5t-16 -14.5q-7 -8 -11 -16.5t-4 -17.5q0 -8 3 -14t9 -9t12.5 -4.5t13.5 -1.5q5 0 9.5 0.5t8.5 1.5q2 1 4.5 1.5t5.5 0.5q2 1 4.5 1.5t4.5 1.5h0.5h1.5q0 1 0.5 1h0.5h0.5h1.5q0 1 0.5 1h1.5v-74
q-2 -1 -4.5 -1.5t-4.5 -1.5q-3 -1 -5.5 -1.5t-4.5 -1.5t-4.5 -1.5t-4.5 -0.5q-3 -1 -5.5 -1.5t-4.5 -0.5h-5.5h-4.5h-2t-2 -1h-3h-2q-20 0 -38 6t-34 17q-16 12 -23.5 28.5t-7.5 38.5q0 17 5.5 31.5t15.5 26.5q11 12 23 22t26 18v0z" />
    <glyph glyph-name="caron" unicode="&#x2c7;" horiz-adv-x="500" 
d="M248 518l-159 97l24 51l135 -51l141 51l22 -51l-163 -97v0z" />
    <glyph glyph-name="Lslash" unicode="&#x141;" 
 />
    <glyph glyph-name="lslash" unicode="&#x142;" 
 />
    <glyph glyph-name="Scaron" unicode="&#x160;" 
 />
    <glyph glyph-name="scaron" unicode="&#x161;" 
 />
    <glyph glyph-name="Zcaron" unicode="&#x17d;" 
 />
    <glyph glyph-name="zcaron" unicode="&#x17e;" 
 />
    <glyph glyph-name="brokenbar" unicode="&#xa6;" 
 />
    <glyph glyph-name="Eth" unicode="&#xd0;" 
 />
    <glyph glyph-name="eth" unicode="&#xf0;" 
 />
    <glyph glyph-name="Yacute" unicode="&#xdd;" 
 />
    <glyph glyph-name="yacute" unicode="&#xfd;" 
 />
    <glyph glyph-name="Thorn" unicode="&#xde;" 
 />
    <glyph glyph-name="thorn" unicode="&#xfe;" 
 />
    <glyph glyph-name="minus" unicode="&#x2212;" 
 />
    <glyph glyph-name="multiply" unicode="&#xd7;" 
 />
    <glyph glyph-name="onesuperior" unicode="&#xb9;" 
 />
    <glyph glyph-name="twosuperior" unicode="&#xb2;" 
 />
    <glyph glyph-name="threesuperior" unicode="&#xb3;" 
 />
    <glyph glyph-name="onehalf" unicode="&#xbd;" 
 />
    <glyph glyph-name="onequarter" unicode="&#xbc;" 
 />
    <glyph glyph-name="threequarters" unicode="&#xbe;" 
 />
    <glyph glyph-name="franc" unicode="&#x20a3;" 
 />
    <glyph glyph-name="Gbreve" unicode="&#x11e;" 
 />
    <glyph glyph-name="gbreve" unicode="&#x11f;" 
 />
    <glyph glyph-name="Idot" unicode="&#x130;" 
 />
    <glyph glyph-name="Scedilla" unicode="&#x15e;" 
 />
    <glyph glyph-name="scedilla" unicode="&#x15f;" 
 />
    <glyph glyph-name="Cacute" unicode="&#x106;" 
 />
    <glyph glyph-name="cacute" unicode="&#x107;" 
 />
    <glyph glyph-name="Ccaron" unicode="&#x10c;" 
 />
    <glyph glyph-name="ccaron" unicode="&#x10d;" 
 />
    <glyph glyph-name="dslash" unicode="&#x111;" 
 />
    <glyph glyph-name="arrowright" unicode="&#x2192;" 
 />
    <glyph glyph-name="house" unicode="&#x2302;" 
 />
    <glyph glyph-name="endash" unicode="&#x2013;" horiz-adv-x="640" 
d="M53 319h533v-151h-533v151v0z" />
    <glyph glyph-name="sfthyphen" unicode="&#xad;" 
 />
    <glyph glyph-name="filledbox" unicode="&#x25a0;" 
 />
    <glyph glyph-name="bullet" unicode="&#x2022;" horiz-adv-x="600" 
d="M198 286q0 19 7 35.5t21 30.5t31 21t37 7t37.5 -7t31.5 -21t21.5 -31t7.5 -37t-7.5 -37t-21.5 -31t-31.5 -21t-37.5 -7t-37 7t-31 21t-21 31t-7 37v2v0z" />
    <glyph glyph-name="overstore" unicode="&#xaf;" 
 />
    <glyph glyph-name="degree" unicode="&#xb0;" 
 />
    <glyph glyph-name="middot" unicode="&#xb7;" 
 />
    <glyph glyph-name="underscoredbl" unicode="&#x2017;" 
 />
    <glyph glyph-name="exclamdbl" unicode="&#x203c;" 
 />
    <glyph glyph-name="nsuperior" unicode="&#x207f;" 
 />
    <glyph glyph-name="peseta" unicode="&#x20a7;" 
 />
    <glyph glyph-name="Gamma" unicode="&#x393;" 
 />
    <glyph glyph-name="Theta" unicode="&#x398;" 
 />
    <glyph glyph-name="Phi" unicode="&#x3a6;" 
 />
    <glyph glyph-name="alpha" unicode="&#x3b1;" 
 />
    <glyph glyph-name="delta" unicode="&#x3b4;" 
 />
    <glyph glyph-name="epsilon" unicode="&#x3b5;" 
 />
    <glyph glyph-name="sigma" unicode="&#x3c3;" 
 />
    <glyph glyph-name="tau" unicode="&#x3c4;" 
 />
    <glyph glyph-name="phi" unicode="&#x3c6;" 
 />
    <glyph glyph-name="arrowleft" unicode="&#x2190;" 
 />
    <glyph glyph-name="arrowup" unicode="&#x2191;" 
 />
    <glyph glyph-name="arrowdown" unicode="&#x2193;" 
 />
    <glyph glyph-name="arrowboth" unicode="&#x2194;" 
 />
    <glyph glyph-name="arrowupdn" unicode="&#x2195;" 
 />
    <glyph glyph-name="arrowupdnbase" unicode="&#x21a8;" 
 />
    <glyph glyph-name="orthogonal" unicode="&#x221f;" 
 />
    <glyph glyph-name="intersection" unicode="&#x2229;" 
 />
    <glyph glyph-name="equivalence" unicode="&#x2261;" 
 />
    <glyph glyph-name="revlogicalnot" unicode="&#x2310;" 
 />
    <glyph glyph-name="integraltp" unicode="&#x2320;" 
 />
    <glyph glyph-name="integralbt" unicode="&#x2321;" 
 />
    <glyph glyph-name="filledrect" unicode="&#x25ac;" 
 />
    <glyph glyph-name="circle" unicode="&#x25cb;" 
 />
    <glyph glyph-name="triagup" unicode="&#x25b2;" 
 />
    <glyph glyph-name="triagrt" unicode="&#x25ba;" 
 />
    <glyph glyph-name="triagdn" unicode="&#x25bc;" 
 />
    <glyph glyph-name="triaglf" unicode="&#x25c4;" 
 />
    <glyph glyph-name="invbullet" unicode="&#x25d8;" 
 />
    <glyph glyph-name="invcircle" unicode="&#x25d9;" 
 />
    <glyph glyph-name="Rcaron" unicode="&#x158;" 
 />
    <glyph glyph-name="upblock" unicode="&#x2580;" 
 />
    <glyph glyph-name="dnblock" unicode="&#x2584;" 
 />
    <glyph glyph-name="block" unicode="&#x2588;" 
 />
    <glyph glyph-name="lfblock" unicode="&#x258c;" 
 />
    <glyph glyph-name="rtblock" unicode="&#x2590;" 
 />
    <glyph glyph-name="ltshade" unicode="&#x2591;" 
 />
    <glyph glyph-name="shade" unicode="&#x2592;" 
 />
    <glyph glyph-name="dkshade" unicode="&#x2593;" 
 />
    <glyph glyph-name="smileface" unicode="&#x263a;" 
 />
    <glyph glyph-name="invsmileface" unicode="&#x263b;" 
 />
    <glyph glyph-name="sun" unicode="&#x263c;" 
 />
    <glyph glyph-name="female" unicode="&#x2640;" 
 />
    <glyph glyph-name="male" unicode="&#x2642;" 
 />
    <glyph glyph-name="spade" unicode="&#x2660;" 
 />
    <glyph glyph-name="club" unicode="&#x2663;" 
 />
    <glyph glyph-name="heart" unicode="&#x2665;" 
 />
    <glyph glyph-name="diamond" unicode="&#x2666;" 
 />
    <glyph glyph-name="musicalnote" unicode="&#x266a;" 
 />
    <glyph glyph-name="musicalnotedbl" unicode="&#x266b;" 
 />
    <glyph glyph-name="Abreve" unicode="&#x102;" 
 />
    <glyph glyph-name="abreve" unicode="&#x103;" 
 />
    <glyph glyph-name="Aogonek" unicode="&#x104;" 
 />
    <glyph glyph-name="aogonek" unicode="&#x105;" 
 />
    <glyph glyph-name="Dcaron" unicode="&#x10e;" 
 />
    <glyph glyph-name="dcaron" unicode="&#x10f;" 
 />
    <glyph glyph-name="Dslash" unicode="&#x110;" 
 />
    <glyph glyph-name="Eogonek" unicode="&#x118;" 
 />
    <glyph glyph-name="eogonek" unicode="&#x119;" 
 />
    <glyph glyph-name="Ecaron" unicode="&#x11a;" 
 />
    <glyph glyph-name="ecaron" unicode="&#x11b;" 
 />
    <glyph glyph-name="Lacute" unicode="&#x139;" 
 />
    <glyph glyph-name="lacute" unicode="&#x13a;" 
 />
    <glyph glyph-name="Lcaron" unicode="&#x13d;" 
 />
    <glyph glyph-name="lcaron" unicode="&#x13e;" 
 />
    <glyph glyph-name="Nacute" unicode="&#x143;" 
 />
    <glyph glyph-name="nacute" unicode="&#x144;" 
 />
    <glyph glyph-name="Ncaron" unicode="&#x147;" 
 />
    <glyph glyph-name="ncaron" unicode="&#x148;" 
 />
    <glyph glyph-name="Odblacute" unicode="&#x150;" 
 />
    <glyph glyph-name="odblacute" unicode="&#x151;" 
 />
    <glyph glyph-name="Racute" unicode="&#x154;" 
 />
    <glyph glyph-name="racute" unicode="&#x155;" 
 />
    <glyph glyph-name="rcaron" unicode="&#x159;" 
 />
    <glyph glyph-name="Sacute" unicode="&#x15a;" 
 />
    <glyph glyph-name="sacute" unicode="&#x15b;" 
 />
    <glyph glyph-name="Tcedilla" unicode="&#x162;" 
 />
    <glyph glyph-name="tcedilla" unicode="&#x163;" 
 />
    <glyph glyph-name="Tcaron" unicode="&#x164;" 
 />
    <glyph glyph-name="tcaron" unicode="&#x165;" 
 />
    <glyph glyph-name="Uring" unicode="&#x16e;" 
 />
    <glyph glyph-name="uring" unicode="&#x16f;" 
 />
    <glyph glyph-name="Udblacute" unicode="&#x171;" 
 />
    <glyph glyph-name="udblacute" unicode="&#x170;" 
 />
    <glyph glyph-name="Zacute" unicode="&#x179;" 
 />
    <glyph glyph-name="zacute" unicode="&#x17a;" 
 />
    <glyph glyph-name="Zdot" unicode="&#x17b;" 
 />
    <glyph glyph-name="zdot" unicode="&#x17c;" 
 />
    <glyph glyph-name="Ldot" unicode="&#x13f;" 
 />
    <glyph glyph-name="ldot" unicode="&#x140;" 
 />
    <glyph glyph-name="2500" unicode="&#x2500;" 
 />
    <glyph glyph-name="2502" unicode="&#x2502;" 
 />
    <glyph glyph-name="250c" unicode="&#x250c;" 
 />
    <glyph glyph-name="2510" unicode="&#x2510;" 
 />
    <glyph glyph-name="2514" unicode="&#x2514;" 
 />
    <glyph glyph-name="2518" unicode="&#x2518;" 
 />
    <glyph glyph-name="251c" unicode="&#x251c;" 
 />
    <glyph glyph-name="2524" unicode="&#x2524;" 
 />
    <glyph glyph-name="252c" unicode="&#x252c;" 
 />
    <glyph glyph-name="2534" unicode="&#x2534;" 
 />
    <glyph glyph-name="253c" unicode="&#x253c;" 
 />
    <glyph glyph-name="2550" unicode="&#x2550;" 
 />
    <glyph glyph-name="2551" unicode="&#x2551;" 
 />
    <glyph glyph-name="2552" unicode="&#x2552;" 
 />
    <glyph glyph-name="2553" unicode="&#x2553;" 
 />
    <glyph glyph-name="2554" unicode="&#x2554;" 
 />
    <glyph glyph-name="2555" unicode="&#x2555;" 
 />
    <glyph glyph-name="2556" unicode="&#x2556;" 
 />
    <glyph glyph-name="2557" unicode="&#x2557;" 
 />
    <glyph glyph-name="2558" unicode="&#x2558;" 
 />
    <glyph glyph-name="2559" unicode="&#x2559;" 
 />
    <glyph glyph-name="255a" unicode="&#x255a;" 
 />
    <glyph glyph-name="255b" unicode="&#x255b;" 
 />
    <glyph glyph-name="255c" unicode="&#x255c;" 
 />
    <glyph glyph-name="255d" unicode="&#x255d;" 
 />
    <glyph glyph-name="255e" unicode="&#x255e;" 
 />
    <glyph glyph-name="255f" unicode="&#x255f;" 
 />
    <glyph glyph-name="2560" unicode="&#x2560;" 
 />
    <glyph glyph-name="2561" unicode="&#x2561;" 
 />
    <glyph glyph-name="2562" unicode="&#x2562;" 
 />
    <glyph glyph-name="2563" unicode="&#x2563;" 
 />
    <glyph glyph-name="2564" unicode="&#x2564;" 
 />
    <glyph glyph-name="2565" unicode="&#x2565;" 
 />
    <glyph glyph-name="2566" unicode="&#x2566;" 
 />
    <glyph glyph-name="2567" unicode="&#x2567;" 
 />
    <glyph glyph-name="2568" unicode="&#x2568;" 
 />
    <glyph glyph-name="2569" unicode="&#x2569;" 
 />
    <glyph glyph-name="256a" unicode="&#x256a;" 
 />
    <glyph glyph-name="256b" unicode="&#x256b;" 
 />
    <glyph glyph-name="256c" unicode="&#x256c;" 
 />
  </font>
</defs>
</svg>
